City And Colour – A Pill For Loneliness




Artist: City And Colour
Year: 2019
Genre: Rock
Notes: Discogs
Add. Notes:
Cover incl.: Yes
Encoder: FLAC
Bitrate: ~900 kBit/s (44.1 kHz/16 Bit/s)
Log & Cue incl.: Yes
Size: 367,9 MB
Password: “slam” (without ” “)


All Downloads/Hosters are compatible

Download 1
KatFile.com
Turbobit.net
FileFactory.com
Rapidgator.net
Download 2
KatFile.com
Turbobit.net
FileFactory.com
Rapidgator.net

Tracklist:

1 Living In Lightning 
2 Astronaut 
3 Imagination 
4 Difficult Love 
5 Me And The Moonlight 
6 Mountain Of Madness 
7 Song Of Unrest 
8 Strangers 
9 The War Years 
10 Young Lovers 
11 Lay Me Down

EAC-Log, CUE-Sheed & NFO:

Click to open spoiler
Exact Audio Copy V1.1 from 23. June 2015

EAC extraction logfile from 26. October 2019, 20:02

City And Colour / A Pill For Loneliness

Used drive : HL-DT-STBDDVDRW CH30N Adapter: 1 ID: 0

Read mode : Secure
Utilize accurate stream : Yes
Defeat audio cache : Yes
Make use of C2 pointers : No

Read offset correction : 6
Overread into Lead-In and Lead-Out : No
Fill up missing offset samples with silence : Yes
Delete leading and trailing silent blocks : No
Null samples used in CRC calculations : Yes
Used interface : Native Win32 interface for Win NT & 2000
Gap handling : Appended to previous track

Used output format : User Defined Encoder
Selected bitrate : 1024 kBit/s
Quality : High
Add ID3 tag : No
Command line compressor : C:\Program Files (x86)\Exact Audio Copy\Flac\flac.exe
Additional command line options : -8 -e -V -T “ARTIST=%artist%” -T “TITLE=%title%” -T “ALBUM=%albumtitle%” -T “DATE=%year%” -T “TRACKNUMBER=%tracknr%” -T “GENRE=%genre%” -T “PERFORMER=%albuminterpret%” -T “COMPOSER=%composer%” %haslyrics%–tag-from-file=LYRICS=”%lyricsfile%”%haslyrics% -T “ALBUMARTIST=%albumartist%” -T “DISCNUMBER=%cdnumber%” -T “TOTALDISCS=%totalcds%” -T “TOTALTRACKS=%numtracks%” -T “COMMENT=%comment%” %source% -o %dest%

TOC of the extracted CD

Track | Start | Length | Start sector | End sector
———————————————————
1 | 0:00.00 | 3:19.00 | 0 | 14924
2 | 3:19.00 | 6:01.00 | 14925 | 41999
3 | 9:20.00 | 5:47.70 | 42000 | 68094
4 | 15:07.70 | 4:04.27 | 68095 | 86421
5 | 19:12.22 | 2:52.34 | 86422 | 99355
6 | 22:04.56 | 4:41.58 | 99356 | 120488
7 | 26:46.39 | 4:45.47 | 120489 | 141910
8 | 31:32.11 | 4:04.42 | 141911 | 160252
9 | 35:36.53 | 6:37.01 | 160253 | 190028
10 | 42:13.54 | 4:07.40 | 190029 | 208593
11 | 46:21.19 | 6:00.63 | 208594 | 235656

Track 1

Filename D:\Archived Music\EAC Rips\City And Colour – A Pill For Loneliness (2019) [CD FLAC]\01 – Living In Lightning.wav

Pre-gap length 0:00:02.00

Peak level 100.0 %
Extraction speed 3.2 X
Track quality 100.0 %
Test CRC 1D924EBE
Copy CRC 1D924EBE
Track not present in AccurateRip database
Copy OK

Track 2

Filename D:\Archived Music\EAC Rips\City And Colour – A Pill For Loneliness (2019) [CD FLAC]\02 – Astronaut.wav

Peak level 100.0 %
Extraction speed 1.2 X
Track quality 100.0 %
Test CRC 11390452
Copy CRC 11390452
Track not present in AccurateRip database
Copy OK

Track 3

Filename D:\Archived Music\EAC Rips\City And Colour – A Pill For Loneliness (2019) [CD FLAC]\03 – Imagination.wav

Peak level 100.0 %
Extraction speed 1.2 X
Track quality 99.9 %
Test CRC CEF4B289
Copy CRC CEF4B289
Track not present in AccurateRip database
Copy OK

Track 4

Filename D:\Archived Music\EAC Rips\City And Colour – A Pill For Loneliness (2019) [CD FLAC]\04 – Difficult Love.wav

Peak level 99.6 %
Extraction speed 1.2 X
Track quality 99.9 %
Test CRC 6C2084FF
Copy CRC 6C2084FF
Track not present in AccurateRip database
Copy OK

Track 5

Filename D:\Archived Music\EAC Rips\City And Colour – A Pill For Loneliness (2019) [CD FLAC]\05 – Me And The Moonlight.wav

Peak level 98.7 %
Extraction speed 1.4 X
Track quality 100.0 %
Test CRC 61A2C8F3
Copy CRC 61A2C8F3
Track not present in AccurateRip database
Copy OK

Track 6

Filename D:\Archived Music\EAC Rips\City And Colour – A Pill For Loneliness (2019) [CD FLAC]\06 – Mountain Of Madness.wav

Peak level 100.0 %
Extraction speed 1.6 X
Track quality 100.0 %
Test CRC 2D4F9FA7
Copy CRC 2D4F9FA7
Track not present in AccurateRip database
Copy OK

Track 7

Filename D:\Archived Music\EAC Rips\City And Colour – A Pill For Loneliness (2019) [CD FLAC]\07 – Song Of Unrest.wav

Peak level 99.4 %
Extraction speed 1.7 X
Track quality 100.0 %
Test CRC 0B337377
Copy CRC 0B337377
Track not present in AccurateRip database
Copy OK

Track 8

Filename D:\Archived Music\EAC Rips\City And Colour – A Pill For Loneliness (2019) [CD FLAC]\08 – Strangers.wav

Peak level 100.0 %
Extraction speed 1.7 X
Track quality 100.0 %
Test CRC A6B085C4
Copy CRC A6B085C4
Track not present in AccurateRip database
Copy OK

Track 9

Filename D:\Archived Music\EAC Rips\City And Colour – A Pill For Loneliness (2019) [CD FLAC]\09 – The War Years.wav

Peak level 100.0 %
Extraction speed 1.9 X
Track quality 100.0 %
Test CRC 04BF4CF2
Copy CRC 04BF4CF2
Track not present in AccurateRip database
Copy OK

Track 10

Filename D:\Archived Music\EAC Rips\City And Colour – A Pill For Loneliness (2019) [CD FLAC]\10 – Young Lovers.wav

Peak level 100.0 %
Extraction speed 1.9 X
Track quality 100.0 %
Test CRC E62962D0
Copy CRC E62962D0
Track not present in AccurateRip database
Copy OK

Track 11

Filename D:\Archived Music\EAC Rips\City And Colour – A Pill For Loneliness (2019) [CD FLAC]\11 – Lay Me Down.wav

Peak level 98.4 %
Extraction speed 2.1 X
Track quality 100.0 %
Test CRC F57988AE
Copy CRC F57988AE
Track not present in AccurateRip database
Copy OK

None of the tracks are present in the AccurateRip database

No errors occurred

End of status report

—- CUETools DB Plugin V2.1.6

[CTDB TOCID: GhpXMezJnNBIhbEMAX2ZZOWqOKA-] found
Submit result: GhpXMezJnNBIhbEMAX2ZZOWqOKA- has been confirmed
Track | CTDB Status
1 | (11/11) Accurately ripped
2 | (11/11) Accurately ripped
3 | (11/11) Accurately ripped
4 | (11/11) Accurately ripped
5 | (11/11) Accurately ripped
6 | (11/11) Accurately ripped
7 | (11/11) Accurately ripped
8 | (11/11) Accurately ripped
9 | (11/11) Accurately ripped
10 | (11/11) Accurately ripped
11 | (11/11) Accurately ripped

==== Log checksum 411D1589D91CFEBCEF15F3F411B41E3398BC125767EE90AEE9478F640C1001EF ====

REM GENRE Alternative
REM DATE 2019
REM DISCID 910C460B
REM COMMENT “ExactAudioCopy v1.1”
CATALOG 0821826027404
PERFORMER “City And Colour”
TITLE “A Pill For Loneliness”
FILE “01 – Living In Lightning.wav” WAVE
TRACK 01 AUDIO
TITLE “Living In Lightning”
PERFORMER “City And Colour”
ISRC CADE71900908
INDEX 01 00:00:00
FILE “02 – Astronaut.wav” WAVE
TRACK 02 AUDIO
TITLE “Astronaut”
PERFORMER “City And Colour”
ISRC CADE71900909
INDEX 01 00:00:00
FILE “03 – Imagination.wav” WAVE
TRACK 03 AUDIO
TITLE “Imagination”
PERFORMER “City And Colour”
ISRC CADE71900910
INDEX 01 00:00:00
FILE “04 – Difficult Love.wav” WAVE
TRACK 04 AUDIO
TITLE “Difficult Love”
PERFORMER “City And Colour”
ISRC CADE71900911
INDEX 01 00:00:00
FILE “05 – Me And The Moonlight.wav” WAVE
TRACK 05 AUDIO
TITLE “Me And The Moonlight”
PERFORMER “City And Colour”
ISRC CADE71900912
INDEX 01 00:00:00
FILE “06 – Mountain Of Madness.wav” WAVE
TRACK 06 AUDIO
TITLE “Mountain Of Madness”
PERFORMER “City And Colour”
ISRC CADE71900913
INDEX 01 00:00:00
FILE “07 – Song Of Unrest.wav” WAVE
TRACK 07 AUDIO
TITLE “Song Of Unrest”
PERFORMER “City And Colour”
ISRC CADE71900914
INDEX 01 00:00:00
FILE “08 – Strangers.wav” WAVE
TRACK 08 AUDIO
TITLE “Strangers”
PERFORMER “City And Colour”
ISRC CADE71900915
INDEX 01 00:00:00
FILE “09 – The War Years.wav” WAVE
TRACK 09 AUDIO
TITLE “The War Years”
PERFORMER “City And Colour”
ISRC CADE71900918
INDEX 01 00:00:00
FILE “10 – Young Lovers.wav” WAVE
TRACK 10 AUDIO
TITLE “Young Lovers”
PERFORMER “City And Colour”
ISRC CADE71900918
INDEX 01 00:00:00
FILE “11 – Lay Me Down.wav” WAVE
TRACK 11 AUDIO
TITLE “Lay Me Down”
PERFORMER “City And Colour”
ISRC CADE71900917
INDEX 01 00:00:00


Leave a Reply

Your email address will not be published. Required fields are marked *

This site uses Akismet to reduce spam. Learn how your comment data is processed.