Circle Jerks – Golden Shower of Hits




[Total: 0    Average: 0/5]

Artist: Circle Jerks
Year: 1983
Genre: Hardcore
Notes: Discogs
Add. Notes:
Cover incl.: Yes
Encoder: FLAC
Bitrate: ~1000 kBit/s (44.1 kHz/16 Bit/s)
Log & Cue incl.: Yes
Size: 193,47 MB
Password: “slam” (without ” “)


All Downloads/Hosters are compatible

Download 1
Share-online.biz
Rapidgator.net
KatFile.com
UploadRar.com
Download 2
Share-online.biz
Rapidgator.net
KatFile.com
UploadRar.com
Download 3
Share-online.biz
Rapidgator.net
KatFile.com
UploadRar.com

Tracklist:

1 - In Your Eyes - 0:41
2 - Parade Of The Horribles - 1:28
3 - Under The Gun - 2:57
4 - When The Shit Hits The Fan - 2:34
5 - Bad Words - 1:44
6 - Red Blanket Room - 1:31
7 - High Price On Our Heads - 2:51
8 - Coup D'Etat - 1:59
9 - Product Of My Environment - 1:47
10 - Rats Of Reality - 3:19
11 - Junk Mail - 1:21
Golden Shower Of Hits (Jerks On 45) - (5:12)
12.1 - Along Comes Mary - 
12.2 - Close To You - 
12.3 - Afternoon Delight - 
12.4 - Having My Baby - 
12.5 - Love Will Keep Us Together - 
12.6 - D-I-V-O-R-C-E

EAC-Log, CUE-Sheed & NFO:

Click to open spoiler
Отчёт EAC об извлечении, выполненном 24. июня 2008, 0:37 для диска:
Circle Jerks / Golden Shower of Hits

Дисковод: Optiarc DVD RW AD-7203S Adapter: 2 ID: 0
Режим чтения: Достоверный (C2: нет, Точный поток: да, Отключение кэша: да)
Коррекция смещения при чтении: 48
Способность читать области Lead-in и Lead-out : Нет

Выходной формат: Внутренние WAV-операции
44.100 Гц; 16 бит; стерео

Другие параметры:
Заполнение пропущенных сэмплов тишиной : Да
Удаление блоков с тишиной в начале и конце : Нет
Встроенный Win32-интерфейс для Win NT/2000

Характеристики диапазона извлечения и сообщения об ошибках
Выбранный диапазон
Имя файла D:\Z_DISTRIBUTIVES\downtor\Circle Jerks – Golden Shower of Hits\Circle Jerks – Golden Shower of Hits.wav

Пиковый уровень 100.0 %
Качество диапазона 100.0 %
CRC 4D613CC5
Копирование… OK

Ошибок не произошло

Конец отчёта

REM GENRE Hardcore
REM DATE 1983
REM DISCID 8206730C
REM COMMENT “ExactAudioCopy v0.95b4”
CATALOG 0075677108823
PERFORMER “Circle Jerks”
TITLE “Golden Shower of Hits”
FILE “Circle Jerks – Golden Shower of Hits.flac” flac
TRACK 01 AUDIO
TITLE “In Your Eyes”
PERFORMER “Circle Jerks”
INDEX 00 00:00:00
INDEX 01 00:00:32
TRACK 02 AUDIO
TITLE “Parade Of The Horribles”
PERFORMER “Circle Jerks”
INDEX 00 00:40:73
INDEX 01 00:42:05
TRACK 03 AUDIO
TITLE “Under The Gun”
PERFORMER “Circle Jerks”
INDEX 00 02:09:72
INDEX 01 02:10:65
TRACK 04 AUDIO
TITLE “When The Shit Hits The Fan”
PERFORMER “Circle Jerks”
INDEX 00 05:05:68
INDEX 01 05:08:42
TRACK 05 AUDIO
TITLE “Bad Words”
PERFORMER “Circle Jerks”
INDEX 00 07:41:66
INDEX 01 07:42:70
TRACK 06 AUDIO
TITLE “Red Blanket Room”
PERFORMER “Circle Jerks”
INDEX 00 09:25:02
INDEX 01 09:27:27
TRACK 07 AUDIO
TITLE “High Price On Our Heads”
PERFORMER “Circle Jerks”
INDEX 00 10:58:17
INDEX 01 10:59:15
TRACK 08 AUDIO
TITLE “Coup d’ Etat”
PERFORMER “Circle Jerks”
INDEX 00 13:49:65
INDEX 01 13:51:02
TRACK 09 AUDIO
TITLE “Product Of My Environment”
PERFORMER “Circle Jerks”
INDEX 00 15:50:06
INDEX 01 15:50:52
TRACK 10 AUDIO
TITLE “Rats Of Reality”
PERFORMER “Circle Jerks”
INDEX 00 17:37:17
INDEX 01 17:38:07
TRACK 11 AUDIO
TITLE “Junk Mail”
PERFORMER “Circle Jerks”
INDEX 00 20:56:74
INDEX 01 20:57:62
TRACK 12 AUDIO
TITLE “Golden Shower Of Hits (Jerks On 45)”
PERFORMER “Circle Jerks”
INDEX 00 22:18:23
INDEX 01 22:19:12


Spread the Download

Leave a Reply

Your email address will not be published. Required fields are marked *

Enter the text from the image below
 

This site uses Akismet to reduce spam. Learn how your comment data is processed.