Cavalera Conspiracy – Pandemonium (Limited Edition)




Artist: Cavalera Conspiracy
Year: 2014
Genre: Metal
Notes: Discogs
Add. Notes: Limited Edition
Cover incl.: Yes
Encoder: FLAC
Bitrate: ~1000 kBit/s (44.1 kHz/16 Bit/s)
Log & Cue incl.: Yes
Size: 389 MB
Password: “slam” (without ” “)


All Downloads/Hosters are compatible

Download 1
KatFile.com
Rapidgator.net
Turbobit.net
FileFactory.com
Download 2
KatFile.com
Rapidgator.net
Turbobit.net
FileFactory.com

Tracklist:

1 - Babylonian Pandemonium - 3:35
2 - Bonzai Kamikazee - 4:04
3 - Scum - 2:29
4 - I, Barbarian - 3:25
5 - Cramunhão - 5:28
6 - Apex Predator - 3:45
7 - Insurrection - 3:50
8 - Not Losing The Edge - 5:10
9 - Father Of Hate - 3:32
10 - The Crucible - 3:27
11 - Deus Ex Machina - 6:25
12 - Porra - 5:59

EAC-Log, CUE-Sheed & NFO:

Click to open spoiler
Exact Audio Copy V1.0 beta 3 from 29. August 2011

EAC extraction logfile from 1. December 2014, 16:27

Cavalera Conspiracy / Pandemonium

Used drive : ASUS DRW-24B1ST c Adapter: 0 ID: 0

Read mode : Secure
Utilize accurate stream : Yes
Defeat audio cache : Yes
Make use of C2 pointers : No

Read offset correction : 6
Overread into Lead-In and Lead-Out : No
Fill up missing offset samples with silence : Yes
Delete leading and trailing silent blocks : No
Null samples used in CRC calculations : Yes
Used interface : Native Win32 interface for Win NT & 2000

Used output format : User Defined Encoder
Selected bitrate : 1024 kBit/s
Quality : High
Add ID3 tag : No
Command line compressor : C:\Program Files (x86)\FLAC Frontend\tools\flac.exe
Additional command line options : -V -8 -T “Date=%year%” -T “Genre=%genre%” -T”COMMENT=Ripped by Os3WaRp” -8 -V %source%

TOC of the extracted CD

Track | Start | Length | Start sector | End sector
———————————————————
1 | 0:00.00 | 3:35.30 | 0 | 16154
2 | 3:35.30 | 4:04.54 | 16155 | 34508
3 | 7:40.09 | 2:28.58 | 34509 | 45666
4 | 10:08.67 | 3:26.17 | 45667 | 61133
5 | 13:35.09 | 5:28.12 | 61134 | 85745
6 | 19:03.21 | 3:45.02 | 85746 | 102622
7 | 22:48.23 | 3:49.55 | 102623 | 119852
8 | 26:38.03 | 5:10.49 | 119853 | 143151
9 | 31:48.52 | 3:31.65 | 143152 | 159041
10 | 35:20.42 | 3:27.33 | 159042 | 174599
11 | 38:48.00 | 6:29.02 | 174600 | 203776
12 | 45:17.02 | 5:59.32 | 203777 | 230733

Range status and errors

Selected range

Filename D:\Cavalera Conspiracy – Pandemonium.wav

Peak level 100.0 %
Extraction speed 8.3 X
Range quality 100.0 %
Copy CRC D7EAB90F
Copy OK

No errors occurred

AccurateRip summary

Track 1 not present in database
Track 2 not present in database
Track 3 not present in database
Track 4 not present in database
Track 5 not present in database
Track 6 not present in database
Track 7 not present in database
Track 8 not present in database
Track 9 not present in database
Track 10 not present in database
Track 11 not present in database
Track 12 not present in database

None of the tracks are present in the AccurateRip database

End of status report

—- CUETools DB Plugin V2.1.4

[CTDB TOCID: 8FnMJdb33cgp4CthrcEBvTFVD5k-] found
Submit result: 8FnMJdb33cgp4CthrcEBvTFVD5k- has been confirmed
Track | CTDB Status
1 | (11/11) Accurately ripped
2 | (10/11) Accurately ripped
3 | (11/11) Accurately ripped
4 | (11/11) Accurately ripped
5 | (11/11) Accurately ripped
6 | (11/11) Accurately ripped
7 | (11/11) Accurately ripped
8 | (11/11) Accurately ripped
9 | (11/11) Accurately ripped
10 | (11/11) Accurately ripped
11 | (11/11) Accurately ripped
12 | (11/11) Accurately ripped

==== Log checksum EB14D1316E0FD39CFA3DC40FD719E18C507A841341E4FF80B4DD77D6BDFA427B ====

REM GENRE “Groove/Thrash/Death Metal”
REM DATE 2014
REM DISCID 790C040C
REM COMMENT “2014 Germany, First Press”
PERFORMER “Cavalera Conspiracy”
TITLE “Pandemonium”
FILE “Cavalera Conspiracy – Pandemonium.flac” WAVE
TRACK 01 AUDIO
TITLE “Babylonian Pandemonium”
PERFORMER “Cavalera Conspiracy”
ISRC ATN261455901
INDEX 01 00:00:00
TRACK 02 AUDIO
TITLE “Bonzai Kamikazee”
PERFORMER “Cavalera Conspiracy”
ISRC ATN261455902
INDEX 01 03:35:30
TRACK 03 AUDIO
TITLE “Scum”
PERFORMER “Cavalera Conspiracy”
ISRC ATN261455903
INDEX 01 07:40:09
TRACK 04 AUDIO
TITLE “I, Barbarian”
PERFORMER “Cavalera Conspiracy”
ISRC ATN261455904
INDEX 01 10:08:67
TRACK 05 AUDIO
TITLE “Cramunhao”
PERFORMER “Cavalera Conspiracy”
ISRC ATN261455905
INDEX 00 13:33:64
INDEX 01 13:35:09
TRACK 06 AUDIO
TITLE “Apex Predator”
PERFORMER “Cavalera Conspiracy”
ISRC ATN261455906
INDEX 01 19:03:21
TRACK 07 AUDIO
TITLE “Insurrection”
PERFORMER “Cavalera Conspiracy”
ISRC ATN261455907
INDEX 01 22:48:23
TRACK 08 AUDIO
TITLE “Not Losing The Edge”
PERFORMER “Cavalera Conspiracy”
ISRC ATN261455908
INDEX 01 26:38:03
TRACK 09 AUDIO
TITLE “Father Of Hate”
PERFORMER “Cavalera Conspiracy”
ISRC ATN261455909
INDEX 01 31:48:52
TRACK 10 AUDIO
TITLE “The Crucible”
PERFORMER “Cavalera Conspiracy”
ISRC ATN261455910
INDEX 01 35:20:42
TRACK 11 AUDIO
TITLE “Deus Ex Machina”
PERFORMER “Cavalera Conspiracy”
ISRC ATN261455911
INDEX 01 38:48:00
TRACK 12 AUDIO
TITLE “Porra”
PERFORMER “Cavalera Conspiracy”
ISRC ATN261455912
INDEX 01 45:17:02


Leave a Reply

Your email address will not be published. Required fields are marked *

Enter the text from the image below
 

This site uses Akismet to reduce spam. Learn how your comment data is processed.