Cavalera Conspiracy – Inflikted




Artist: Cavalera Conspiracy
Year: 2008
Genre: Rock
Notes: Discogs
Add. Notes:
Cover incl.: Yes
Encoder: FLAC
Bitrate: ~1000 kBit/s (44.1 kHz/16 Bit/s)
Log & Cue incl.: Yes
Size: 506 MB
Password: “slam” (without ” “)


All Downloads/Hosters are compatible

Download 1
KatFile.com
Rapidgator.net
Turbobit.net
FileFactory.com
Download 2
KatFile.com
Rapidgator.net
Turbobit.net
FileFactory.com

Tracklist:

1 - Inflikted - 4:32
2 - Sanctuary - 3:23
3 - Terrorize - 3:37
4 - Black Ark - 4:54
5 - Ultra-Violent - 3:47
6 - Hex - 2:37
7 - The Doom Of All Fires - 2:12
8 - Bloodbrawl - 5:41
9 - Nevertrust - 2:23
10 - Hearts Of Darkness - 4:29
11 - Must Kill - 5:56

EAC-Log, CUE-Sheed & NFO:

Click to open spoiler
Exact Audio Copy V0.99 prebeta 4 from 23. January 2008

Звіт EAC про видобування, котре виконане 16. листопада 2009, 19:59

Cavalera Conspiracy / Inflikted

Дисковод: ASUS DRW-1608P3S Adapter: 1 ID: 0

Режим читання : Точний
Використати точний потік : Так
Вимкнути аудіо кеш : Так
Застосувати мітки C2 : Ні

Корекція зміщення при читанні : 48
Екстрачитання областей Lead-in і Lead-out : Ні
Заповнення пропущених семплів тишею : Так
Видалення блоків з тишею на початку і кінці : Ні
При вирахуванні CRC використовувались нульові семпли : Ні
Використаний інтерфейс : ‘Рідний’ Win32-інтерфейс для Win NT/2000

Застосований вихідний формат : Кодер Користувача
Обраний бітрейт : 768 kBit/s
Якість : Високий
Додати тег ID3 : Ні
Компресор командного рядка : C:\Program Files\Exact Audio Copy\FLAC\FLAC.EXE
Додаткові параметри командного рядка : -6 -V -T “ARTIST=%a” -T “TITLE=%t” -T “ALBUM=%g” -T “DATE=%y” -T “TRACKNUMBER=%n” -T “GENRE=%m” -T “COMMENT=%e” %s -o %d

TOC видобутого CD

Трек | Старт | Довжина | Початковий сектор | Кінцевий сектор
——————————————————————
1 | 0:00.00 | 4:36.11 | 0 | 20710
2 | 4:36.11 | 3:25.10 | 20711 | 36095
3 | 8:01.21 | 3:39.70 | 36096 | 52590
4 | 11:41.16 | 4:56.46 | 52591 | 74836
5 | 16:37.62 | 3:48.40 | 74837 | 91976
6 | 20:26.27 | 2:40.72 | 91977 | 104048
7 | 23:07.24 | 2:14.16 | 104049 | 114114
8 | 25:21.40 | 5:43.55 | 114115 | 139894
9 | 31:05.20 | 2:23.00 | 139895 | 150619
10 | 33:28.20 | 4:33.48 | 150620 | 171142
11 | 38:01.68 | 5:56.02 | 171143 | 197844

Статус діапазону і помилки

Обраний діапазон

Ім’я файлу C:\2008 Inflikted\Cavalera Conspiracy – Inflikted.wav

Піковий рівень 100.0 %
Якість діапазону 99.9 %
CRC тесту 97FBD7B1
CRC копії 97FBD7B1
Копіювання… OK

Помилки не траплялися

Звіт Точного Видобування

Трек 1 точність не визначена (достовірність 2) [2E683205], AccurateRip повернув [C1AAD305]
Трек 2 точність не визначена (достовірність 2) [55E20AF9], AccurateRip повернув [9048375D]
Трек 3 точність не визначена (достовірність 2) [FC99BA41], AccurateRip повернув [C29BBE99]
Трек 4 точність не визначена (достовірність 2) [2935FD23], AccurateRip повернув [63452BBF]
Трек 5 точність не визначена (достовірність 2) [0A41D363], AccurateRip повернув [931EC11D]
Трек 6 точність не визначена (достовірність 2) [7F5FDF46], AccurateRip повернув [3CACC788]
Трек 7 точність не визначена (достовірність 2) [806AC3ED], AccurateRip повернув [F920CA93]
Трек 8 точність не визначена (достовірність 2) [8323E91F], AccurateRip повернув [C24E8A71]
Трек 9 точність не визначена (достовірність 2) [0F068099], AccurateRip повернув [BC2ED7BD]
Трек 10 точність не визначена (достовірність 2) [6A16CE1B], AccurateRip повернув [4D321103]
Трек 11 не присутнє в базі даних

0 трек(и) не вдалося перевірити на точність
1 трек(и) не містяться в базі AccurateRip

Жоден трек не пройшов перевірку на точність
В Вашій базі може бути інший варіант штамповки диска

Кінець звіту

REM GENRE “Thrash Metal”
REM DATE 2008
REM DISCID 9C0A4D0B
REM COMMENT “ExactAudioCopy v0.99pb4”
PERFORMER “Cavalera Conspiracy”
TITLE “Inflikted”
FILE “Cavalera Conspiracy – Inflikted.flac” WAVE
TRACK 01 AUDIO
TITLE “Inflikted”
PERFORMER “Cavalera Conspiracy”
INDEX 01 00:00:00
TRACK 02 AUDIO
TITLE “Sanctuary”
PERFORMER “Cavalera Conspiracy”
INDEX 00 04:34:11
INDEX 01 04:36:11
TRACK 03 AUDIO
TITLE “Terrorize”
PERFORMER “Cavalera Conspiracy”
INDEX 00 07:59:24
INDEX 01 08:01:21
TRACK 04 AUDIO
TITLE “Black Ark”
PERFORMER “Cavalera Conspiracy”
INDEX 00 11:39:23
INDEX 01 11:41:16
TRACK 05 AUDIO
TITLE “Ultra-Violent”
PERFORMER “Cavalera Conspiracy”
INDEX 00 16:35:61
INDEX 01 16:37:62
TRACK 06 AUDIO
TITLE “Hex”
PERFORMER “Cavalera Conspiracy”
INDEX 00 20:24:29
INDEX 01 20:26:27
TRACK 07 AUDIO
TITLE “The Doom Of All Fires”
PERFORMER “Cavalera Conspiracy”
INDEX 00 23:05:25
INDEX 01 23:07:24
TRACK 08 AUDIO
TITLE “Bloodbrawl”
PERFORMER “Cavalera Conspiracy”
INDEX 00 25:19:43
INDEX 01 25:21:40
TRACK 09 AUDIO
TITLE “Nevertrust”
PERFORMER “Cavalera Conspiracy”
INDEX 00 31:03:23
INDEX 01 31:05:20
TRACK 10 AUDIO
TITLE “Hearts Of Darkness”
PERFORMER “Cavalera Conspiracy”
INDEX 00 33:26:25
INDEX 01 33:28:20
TRACK 11 AUDIO
TITLE “Must Kill”
PERFORMER “Cavalera Conspiracy”
INDEX 00 37:59:69
INDEX 01 38:01:68


Leave a Reply

Your email address will not be published. Required fields are marked *

This site uses Akismet to reduce spam. Learn how your comment data is processed.