Cavalera Conspiracy – Inflikted (Japanese Edition)




[Total: 0    Average: 0/5]

Artist: Cavalera Conspiracy
Year: 2007/2008
Genre: Rock
Notes: Discogs
Add. Notes: Japanese Edition
Cover incl.: Yes
Encoder: FLAC
Bitrate: ~1000 kBit/s (44.1 kHz/16 Bit/s)
Log & Cue incl.: Yes
Size: 498 MB
Password: “slam” (without ” “)


All Downloads/Hosters are compatible

Download 1
KatFile.com
Turbobit.net
FileFactory.com
Rapidgator.net
Download 2
KatFile.com
Turbobit.net
FileFactory.com
Rapidgator.net

Tracklist:

1 - Inflikted - 4:32
2 - Sanctuary - 3:23
3 - Terrorize - 3:38
4 - Black Ark - 4:55
5 - Ultra-Violent - 3:48
6 - Hex - 2:38
7 - The Doom Of All Fires - 2:12
8 - Bloodbrawl - 5:42
9 - Nevertrust - 2:23
10 - Hearts Of Darkness - 4:30
11 - Must Kill - 5:58
12 - The Exorcist - 3:27

EAC-Log, CUE-Sheed & NFO:

Click to open spoiler
Exact Audio Copy V0.99 prebeta 5 from 4. May 2009

Отчёт EAC об извлечении, выполненном 4. марта 2011, 20:44

Cavalera Conspiracy / Inflikted

Дисковод: PIONEER DVD-RW DVR-115D Adapter: 0 ID: 0

Режим чтения : Достоверность
Использование точного потока : Да
Отключение кэша аудио : Да
Использование указателей C2 : Нет

Коррекция смещения при чтении : 48
Способность читать области Lead-in и Lead-out : Нет
Заполнение пропущенных сэмплов тишиной : Да
Удаление блоков с тишиной в начале и конце : Нет
При вычислениях CRC использовались нулевые сэмплы : Да
Интерфейс : Установленный внешний ASPI-интерфейс

Выходной формат : Внутренние WAV-операции
Формат сэмплов : 44.100 Гц; 16 бит; стерео

TOC извлечённого CD

Трек | Старт | Длительность | Начальный сектор | Конечный сектор
———————————————————————
1 | 0:00.00 | 4:32.11 | 0 | 20410
2 | 4:32.11 | 3:23.10 | 20411 | 35645
3 | 7:55.21 | 3:37.70 | 35646 | 51990
4 | 11:33.16 | 4:54.46 | 51991 | 74086
5 | 16:27.62 | 3:47.40 | 74087 | 91151
6 | 20:15.27 | 2:37.72 | 91152 | 102998
7 | 22:53.24 | 2:12.16 | 102999 | 112914
8 | 25:05.40 | 5:41.55 | 112915 | 138544
9 | 30:47.20 | 2:23.00 | 138545 | 149269
10 | 33:10.20 | 4:29.48 | 149270 | 169492
11 | 37:39.68 | 5:58.02 | 169493 | 196344
12 | 43:37.70 | 3:26.72 | 196345 | 211866

Характеристики диапазона извлечения и сообщения об ошибках

Выбранный диапазон

Имя файла I:\Cavalera Conspiracy\Cavalera Conspiracy – Inflikted.wav

Пиковый уровень 100.0 %
Качество диапазона 100.0 %
CRC теста 92E0064B
CRC копии 92E0064B
Копирование… OK

Ошибок не произошло

AccurateRip: сводка

Трек 1 точное извлечение (доверие 1) [F04D8B05]
Трек 2 точное извлечение (доверие 1) [10394ACD]
Трек 3 точное извлечение (доверие 1) [D1BACB39]
Трек 4 точное извлечение (доверие 1) [00066C4F]
Трек 5 точное извлечение (доверие 1) [BAA766B5]
Трек 6 точное извлечение (доверие 1) [CF8E78FC]
Трек 7 точное извлечение (доверие 1) [576A8B7B]
Трек 8 точное извлечение (доверие 1) [21B90FA9]
Трек 9 точное извлечение (доверие 1) [17EA302D]
Трек 10 точное извлечение (доверие 1) [91E63FC3]
Трек 11 точное извлечение (доверие 1) [15CF23BD]
Трек 12 точное извлечение (доверие 1) [17978031]

Все треки извлечены точно

Конец отчёта

REM GENRE “Thrash Metal”
REM DATE 2008
REM DISCID BF0B080C
REM COMMENT “ExactAudioCopy v0.99pb5”
PERFORMER “Cavalera Conspiracy”
TITLE “Inflikted”
FILE “Cavalera Conspiracy – Inflikted.flac” WAVE
TRACK 01 AUDIO
TITLE “Inflikted”
PERFORMER “Cavalera Conspiracy”
INDEX 01 00:00:00
TRACK 02 AUDIO
TITLE “Sanctuary”
PERFORMER “Cavalera Conspiracy”
INDEX 01 04:32:11
TRACK 03 AUDIO
TITLE “Terrorize”
PERFORMER “Cavalera Conspiracy”
INDEX 01 07:55:21
TRACK 04 AUDIO
TITLE “Black Ark”
PERFORMER “Cavalera Conspiracy”
INDEX 01 11:33:16
TRACK 05 AUDIO
TITLE “Ultra-Violent”
PERFORMER “Cavalera Conspiracy”
INDEX 01 16:27:62
TRACK 06 AUDIO
TITLE “Hex”
PERFORMER “Cavalera Conspiracy”
INDEX 00 20:14:27
INDEX 01 20:15:27
TRACK 07 AUDIO
TITLE “The Doom Of All Fires”
PERFORMER “Cavalera Conspiracy”
INDEX 01 22:53:24
TRACK 08 AUDIO
TITLE “Bloodbrawl”
PERFORMER “Cavalera Conspiracy”
INDEX 01 25:05:40
TRACK 09 AUDIO
TITLE “Nevertrust”
PERFORMER “Cavalera Conspiracy”
INDEX 01 30:47:20
TRACK 10 AUDIO
TITLE “Hearts Of Darkness”
PERFORMER “Cavalera Conspiracy”
INDEX 00 33:08:20
INDEX 01 33:10:20
TRACK 11 AUDIO
TITLE “Must Kill”
PERFORMER “Cavalera Conspiracy”
INDEX 01 37:39:68
TRACK 12 AUDIO
TITLE “The Exorcist”
PERFORMER “Cavalera Conspiracy”
INDEX 00 43:35:70
INDEX 01 43:37:70


Spread the Download

Leave a Reply

Your email address will not be published. Required fields are marked *

Enter the text from the image below
 

This site uses Akismet to reduce spam. Learn how your comment data is processed.