Cavalera Conspiracy – Blunt Force Trauma




[Total: 0    Average: 0/5]

Artist: Cavalera Conspiracy
Year: 2011
Genre: Rock
Notes: Discogs
Add. Notes:
Cover incl.: Yes
Encoder: FLAC
Bitrate: ~1100 kBit/s (44.1 kHz/16 Bit/s)
Log & Cue incl.: Yes
Size: 353 MB
Password: “slam” (without ” “)


All Downloads/Hosters are compatible

Download 1
KatFile.com
Turbobit.net
FileFactory.com
Rapidgator.net
Download 2
KatFile.com
Turbobit.net
FileFactory.com
Rapidgator.net

Tracklist:

1. Warlord
2. Torture
3. Lynch Mob
4. Killing Inside
5. Thrasher
6. I Speak Hate
7. Target
8. Genghis Khan
9. Burn Waco
10. Rasputin
11. Blunt Force Trauma

EAC-Log, CUE-Sheed & NFO:

Click to open spoiler
Exact Audio Copy V1.0 beta 1 from 15. November 2010

EAC extraction logfile from 7. June 2011, 18:40

Cavalera Conspiracy / Blunt Force Trauma (RR 7758-2)

Used drive : SONY DVD RW AW-G170A Adapter: 1 ID: 0

Read mode : Secure
Utilize accurate stream : Yes
Defeat audio cache : Yes
Make use of C2 pointers : No

Read offset correction : 48
Overread into Lead-In and Lead-Out : No
Fill up missing offset samples with silence : Yes
Delete leading and trailing silent blocks : No
Null samples used in CRC calculations : Yes
Used interface : Native Win32 interface for Win NT & 2000

Used output format : Internal WAV Routines
Sample format : 44.100 Hz; 16 Bit; Stereo

TOC of the extracted CD

Track | Start | Length | Start sector | End sector
———————————————————
1 | 0:00.00 | 3:05.35 | 0 | 13909
2 | 3:05.35 | 1:51.70 | 13910 | 22304
3 | 4:57.30 | 2:31.65 | 22305 | 33694
4 | 7:29.20 | 3:29.09 | 33695 | 49378
5 | 10:58.29 | 2:50.55 | 49379 | 62183
6 | 13:49.09 | 3:10.44 | 62184 | 76477
7 | 16:59.53 | 2:36.64 | 76478 | 88241
8 | 19:36.42 | 4:23.41 | 88242 | 108007
9 | 24:00.08 | 2:53.07 | 108008 | 120989
10 | 26:53.15 | 3:22.56 | 120990 | 136195
11 | 30:15.71 | 3:58.02 | 136196 | 154047

Range status and errors

Selected range

Filename F:\.www.AvaxHome.ru.lossless\Cavalera Conspiracy – Blunt Force Trauma (RR 7758-2).wav

Peak level 100.0 %
Extraction speed 0.4 X
Range quality 99.9 %
Test CRC B015444D
Copy CRC B015444D
Copy OK

No errors occurred

AccurateRip summary

Track 1 not present in database
Track 2 not present in database
Track 3 not present in database
Track 4 not present in database
Track 5 not present in database
Track 6 not present in database
Track 7 not present in database
Track 8 not present in database
Track 9 not present in database
Track 10 not present in database
Track 11 not present in database

None of the tracks are present in the AccurateRip database

End of status report

==== Log checksum 7E3E9A9D8A58752515FBB4B5CDDC3549C06F07268C2AFC4E367262E04AC4E796 ====

^REM GENRE “Groove Metal”
REM DATE 2011
REM DISCID 8608050B
REM COMMENT “ExactAudioCopy v1.0b1”
PERFORMER “Cavalera Conspiracy”
TITLE “Blunt Force Trauma (RR 7758-2)”
FILE “Cavalera Conspiracy – Blunt Force Trauma (RR 7758-2).flac” WAVE
TRACK 01 AUDIO
TITLE “Warlord”
PERFORMER “Cavalera Conspiracy”
INDEX 01 00:00:00
TRACK 02 AUDIO
TITLE “Torture”
PERFORMER “Cavalera Conspiracy”
INDEX 01 03:05:35
TRACK 03 AUDIO
TITLE “Lynch Mob”
PERFORMER “Cavalera Conspiracy”
INDEX 01 04:57:30
TRACK 04 AUDIO
TITLE “Killing Inside”
PERFORMER “Cavalera Conspiracy”
INDEX 01 07:29:20
TRACK 05 AUDIO
TITLE “Thrasher”
PERFORMER “Cavalera Conspiracy”
INDEX 00 10:57:29
INDEX 01 10:58:29
TRACK 06 AUDIO
TITLE “I Speak Hate”
PERFORMER “Cavalera Conspiracy”
INDEX 00 13:48:09
INDEX 01 13:49:09
TRACK 07 AUDIO
TITLE “Target”
PERFORMER “Cavalera Conspiracy”
INDEX 01 16:59:53
TRACK 08 AUDIO
TITLE “Genghis Khan”
PERFORMER “Cavalera Conspiracy”
INDEX 01 19:36:42
TRACK 09 AUDIO
TITLE “Burn Waco”
PERFORMER “Cavalera Conspiracy”
INDEX 01 24:00:08
TRACK 10 AUDIO
TITLE “Rasputin”
PERFORMER “Cavalera Conspiracy”
INDEX 00 26:52:38
INDEX 01 26:53:15
TRACK 11 AUDIO
TITLE “Blunt Force Trauma”
PERFORMER “Cavalera Conspiracy”
INDEX 01 30:15:71


Spread the Download

Leave a Reply

Your email address will not be published. Required fields are marked *

Enter the text from the image below
 

This site uses Akismet to reduce spam. Learn how your comment data is processed.