Cathedral – The Garden Of Unearthly Delights (Limited Edition)




No Cover available

Artist: Cathedral
Year: 2005
Genre: Metal
Notes: Discogs
Add. Notes: Limited Edition
Watch Songs on: YouTube
Cover incl.: Yes
Encoder: FLAC
Bitrate: ~1000 kBit/s (44.1 kHz/16 Bit/s)
Log & Cue incl.: Yes/Yes
Size: 585,4 MB
Password: “slam” (without ” “)


All Downloads/Hosters are compatible

Download 1
KatFile.com
Turbobit.net
Rapidgator.net
FileFactory.com
Download 2
KatFile.com
Turbobit.net
Rapidgator.net
FileFactory.com

Tracklist:

1 Dearth AD 1:00
2 Tree Of Life & Death 4:36
3 North Berwick Witch Trials 5:58
4 Upon Azrael's Wings 5:38
5 Corpsecycle 5:54
6 Fields Of Zagara 1:59
7 Oro The Manslayer 7:29
8 Beneath A Funeral Sun 5:20
9 The Garden 26:59
Hidden Track
10 Proga - Europa 5:58

EAC-Log, CUE-Sheed & NFO:

Click to open spoiler
Exact Audio Copy V1.0 beta 3 from 29. August 2011

EAC extraction logfile from 28. February 2012, 21:28

Cathedral / The Garden Of Unearthly Delights (27361
11990)

Used drive : PIONEER DVD-RW DVR-219L Adapter: 2
ID: 0

Read mode : Secure
Utilize accurate stream : Yes
Defeat audio cache : Yes
Make use of C2 pointers : No

Read offset correction : 6
Overread into Lead-In and Lead-Out : No
Fill up missing offset samples with silence : Yes
Delete leading and trailing silent blocks : No
Null samples used in CRC calculations : Yes
Used interface : Native Win32 interface
for Win NT & 2000

Used output format : Internal WAV Routines
Sample format : 44.100 Hz; 16 Bit; Stereo

TOC of the extracted CD

Track | Start | Length | Start sector | End sector
———————————————————
1 | 0:00.00 | 1:00.69 | 0 | 4568
2 | 1:00.69 | 4:35.38 | 4569 | 25231
3 | 5:36.32 | 5:58.32 | 25232 | 52113
4 | 11:34.64 | 5:37.37 | 52114 | 77425
5 | 17:12.26 | 5:54.38 | 77426 | 104013
6 | 23:06.64 | 1:58.27 | 104014 | 112890
7 | 25:05.16 | 7:29.10 | 112891 | 146575
8 | 32:34.26 | 5:20.02 | 146576 | 170577
9 | 37:54.28 | 26:58.64 | 170578 | 291991
10 | 64:53.17 | 5:58.19 | 291992 | 318860

Range status and errors

Selected range

Filename F:\.www.AvaxHome.ru\Cathedral – The
Garden Of Unearthly Delights (27361 11990).wav

Peak level 98.8 %
Extraction speed 8.5 X
Range quality 100.0 %
Test CRC E5CBF5C0
Copy CRC E5CBF5C0
Copy OK

No errors occurred

AccurateRip summary

Track 1 accurately ripped (confidence 3) [6F7A02BB]
(AR v2)
Track 2 accurately ripped (confidence 3) [768D6C19]
(AR v2)
Track 3 accurately ripped (confidence 3) [B488D62A]
(AR v2)
Track 4 accurately ripped (confidence 3) [140677BB]
(AR v2)
Track 5 accurately ripped (confidence 3) [20157BFC]
(AR v2)
Track 6 accurately ripped (confidence 3) [512D0D5D]
(AR v2)
Track 7 accurately ripped (confidence 3) [E42FAF72]
(AR v2)
Track 8 accurately ripped (confidence 3) [26FDF885]
(AR v2)
Track 9 accurately ripped (confidence 3) [3CD43DC8]
(AR v2)
Track 10 accurately ripped (confidence 3) [DBCEFE60]
(AR v2)

All tracks accurately ripped

End of status report

==== Log checksum
F94F9CF699537ACBA2FD66677499314BA814569A14E32
FB8B84E04F02F2AEFB8 ====

REM GENRE “Doom Metal”
REM DATE 2005
REM DISCID 95109B0A
REM COMMENT “ExactAudioCopy v1.0b3”
PERFORMER “Cathedral”
TITLE “The Garden Of Unearthly Delights (27361 11990)”
FILE “Cathedral – The Garden Of Unearthly Delights
(27361 11990).flac” WAVE
TRACK 01 AUDIO
TITLE “Dearth AD”
PERFORMER “Cathedral”
ISRC DED830585701
INDEX 01 00:00:00
TRACK 02 AUDIO
TITLE “Tree Of Life & Death”
PERFORMER “Cathedral”
ISRC DED830585702
INDEX 01 01:00:69
TRACK 03 AUDIO
TITLE “North Berwick Witch Trials”
PERFORMER “Cathedral”
ISRC DED830585703
INDEX 00 05:35:50
INDEX 01 05:36:32
TRACK 04 AUDIO
TITLE “Upon Azrael’s Wings”
PERFORMER “Cathedral”
ISRC DED830585704
INDEX 00 11:34:15
INDEX 01 11:34:64
TRACK 05 AUDIO
TITLE “Corpsecycle”
PERFORMER “Cathedral”
ISRC DED830585705
INDEX 01 17:12:26
TRACK 06 AUDIO
TITLE “Fields Of Zagara”
PERFORMER “Cathedral”
ISRC DED830585706
INDEX 01 23:06:64
TRACK 07 AUDIO
TITLE “Oro The Manslayer”
PERFORMER “Cathedral”
ISRC DED830585707
INDEX 01 25:05:16
TRACK 08 AUDIO
TITLE “Beneath A Funeral Sun”
PERFORMER “Cathedral”
ISRC DED830585708
INDEX 01 32:34:26
TRACK 09 AUDIO
TITLE “The Garden”
PERFORMER “Cathedral”
ISRC DED830585709
INDEX 00 37:50:40
INDEX 01 37:54:28
TRACK 10 AUDIO
TITLE “Proga-Europa (Hidden Track)”
PERFORMER “Cathedral”
ISRC DED830585710
INDEX 00 64:51:11
INDEX 01 64:53:17


Leave a Reply

Your email address will not be published. Required fields are marked *

Enter the text from the image below
 

This site uses Akismet to reduce spam. Learn how your comment data is processed.