Cathedral – Forest Of Equilibrium (Limited Remastered Edition)




No Cover available


Artist: Cathedral
Year: 1991/2009
Genre: Metal
Notes: Discogs
Add. Notes: Limited Remastered Edition
Watch Songs on: YouTube
Cover incl.: Yes
Encoder: FLAC
Bitrate: ~1000 kBit/s (44.1 kHz/16 Bit/s)
Log & Cue incl.: Yes/Yes
Size: 639,5 MB
Password: “slam” (without ” “)


All Downloads/Hosters are compatible

Download 1
KatFile.com
Turbobit.net
Rapidgator.net
FileFactory.com
Download 2
KatFile.com
Turbobit.net
Rapidgator.net
FileFactory.com

Tracklist:

CD 1: Forest Of Equilibrium
1 Picture Of B... / Commiserating The C.. 11:15
2 Ebony Tears 7:45
3 Serpent Eve 7:40
4 Soul Sacrifice 2:55
5 A Funeral Request 9:17
6 Equilibrium 6:07
7 Reaching Happiness, Touching Pain 9:10

CD 2: Soul Sacrifice EP
1 Soul Sacrifice 4:35
2 Autumn Twilight 5:50
3 Frozen Rapture 6:09
4 Golden Blood (Flooding) 8:11

EAC-Log, CUE-Sheed & NFO:

Click to open spoiler
Exact Audio Copy V0.99 prebeta 5 from 4. May 2009

EAC extraction logfile from 8. October 2009, 5:11

Cathedral / Soul Sacrifice

Used drive : HL-DT-STDVD-RAM GH15L Adapter: 0 ID: 1

Read mode : Secure
Utilize accurate stream : Yes
Defeat audio cache : Yes
Make use of C2 pointers : No

Read offset correction : 667
Overread into Lead-In and Lead-Out : No
Fill up missing offset samples with silence : Yes
Delete leading and trailing silent blocks : No
Null samples used in CRC calculations : No
Used interface : Native Win32 interface for Win NT & 2000

Used output format : Monkey’s Audio Lossless Encoder
Selected bitrate : High Lossless Compression
Quality : High
Add ID3 tag : No
Command line compressor : C:\Program Files\Exact Audio Copy\MAC.EXE

TOC of the extracted CD

Track | Start | Length | Start sector | End sector
———————————————————
1 | 0:00.00 | 4:34.68 | 0 | 20617
2 | 4:34.68 | 5:50.24 | 20618 | 46891
3 | 10:25.17 | 6:08.60 | 46892 | 74551
4 | 16:34.02 | 8:11.31 | 74552 | 111407

Range status and errors

Selected range

Filename C:\Documents and Settings\Administrator\Pulpit\Cathedral – Soul Sacrifice.wav

Peak level 99.9 %
Range quality 100.0 %
Copy CRC FED2E9DE
Copy OK

No errors occurred

End of status report

Exact Audio Copy V0.99 prebeta 5 from 4. May 2009

EAC extraction logfile from 8. October 2009, 4:55

Cathedral / Forest Of Equilibrium

Used drive : HL-DT-STDVD-RAM GH15L Adapter: 0 ID: 1

Read mode : Secure
Utilize accurate stream : Yes
Defeat audio cache : Yes
Make use of C2 pointers : No

Read offset correction : 667
Overread into Lead-In and Lead-Out : No
Fill up missing offset samples with silence : Yes
Delete leading and trailing silent blocks : No
Null samples used in CRC calculations : No
Used interface : Native Win32 interface for Win NT & 2000

Used output format : Monkey’s Audio Lossless Encoder
Selected bitrate : High Lossless Compression
Quality : High
Add ID3 tag : No
Command line compressor : C:\Program Files\Exact Audio Copy\MAC.EXE

TOC of the extracted CD

Track | Start | Length | Start sector | End sector
———————————————————
1 | 0:00.00 | 11:14.45 | 0 | 50594
2 | 11:14.45 | 7:44.54 | 50595 | 85448
3 | 18:59.24 | 7:40.29 | 85449 | 119977
4 | 26:39.53 | 2:54.51 | 119978 | 133078
5 | 29:34.29 | 9:16.66 | 133079 | 174844
6 | 38:51.20 | 6:06.59 | 174845 | 202353
7 | 44:58.04 | 9:10.04 | 202354 | 243607

Range status and errors

Selected range

Filename C:\Documents and Settings\Administrator\Pulpit\dual\CATHEDRAL [1991] [CD+DVD] Forest of Equilibrium (Dual Disc 2009)\CATHEDRAL [1991] [CD] Forest of Equilibrium (Dual Disc 2009)\Cathedral – Forest Of Equilibrium.wav

Peak level 99.9 %
Range quality 100.0 %
Copy CRC 042DE706
Copy OK

No errors occurred

End of status report

REM GENRE Doom
REM DATE 2009
REM DISCID 4D0CB007
REM COMMENT “ExactAudioCopy v0.99pb5”
PERFORMER “Cathedral”
TITLE “Forest Of Equilibrium”
FILE “Cathedral – Forest Of Equilibrium.flac” WAVE
TRACK 01 AUDIO
TITLE “Picture Of Beauty & Innocence (Intro) – Comiserating The Celebration”
PERFORMER “Cathedral”
INDEX 01 00:00:00
TRACK 02 AUDIO
TITLE “Ebony Tears”
PERFORMER “Cathedral”
INDEX 01 11:14:45
TRACK 03 AUDIO
TITLE “Serpent Eve”
PERFORMER “Cathedral”
INDEX 01 18:59:24
TRACK 04 AUDIO
TITLE “Soul Sacrifice”
PERFORMER “Cathedral”
INDEX 01 26:39:53
TRACK 05 AUDIO
TITLE “A Funeral Request”
PERFORMER “Cathedral”
INDEX 01 29:34:29
TRACK 06 AUDIO
TITLE “Equilibrium”
PERFORMER “Cathedral”
INDEX 01 38:51:20
TRACK 07 AUDIO
TITLE “Reaching Happiness, Touching Pain”
PERFORMER “Cathedral”
INDEX 01 44:58:04

REM DISCID 3805CD04
REM COMMENT “ExactAudioCopy v0.99pb5”
PERFORMER “Cathedral”
TITLE “Soul Sacrifice”
FILE “Cathedral – Soul Sacrifice.flac” WAVE
TRACK 01 AUDIO
TITLE “Soul Sacrifice”
PERFORMER “Cathedral”
INDEX 01 00:00:00
TRACK 02 AUDIO
TITLE “Autumn Twilight”
PERFORMER “Cathedral”
INDEX 00 04:31:72
INDEX 01 04:34:68
TRACK 03 AUDIO
TITLE “Frozen Rapture”
PERFORMER “Cathedral”
INDEX 00 10:22:29
INDEX 01 10:25:17
TRACK 04 AUDIO
TITLE “Golden Blood (Flooding)”
PERFORMER “Cathedral”
INDEX 00 16:31:06
INDEX 01 16:34:02


0

Publication author

offline 4 days

Chaos

3
Comments: 4Publics: 3565Registration: 02-02-2019
Spread the Download

Leave a Reply

Your email address will not be published. Required fields are marked *

Enter the text from the image below
 

This site uses Akismet to reduce spam. Learn how your comment data is processed.