Cathedral – Endtyme




No Cover available

Artist: Cathedral
Year: 2001
Genre: Metal
Notes: Discogs
Add. Notes:
Watch Songs on: YouTube
Cover incl.: Yes
Encoder: FLAC
Bitrate: ~1000 kBit/s (44.1 kHz/16 Bit/s)
Log & Cue incl.: Yes/Yes
Size: 471,8 MB
Password: “slam” (without ” “)


All Downloads/Hosters are compatible

Download 1
KatFile.com
Turbobit.net
Rapidgator.net
FileFactory.com
Download 2
KatFile.com
Turbobit.net
Rapidgator.net
FileFactory.com

Tracklist:

1 Cathedral Flames 1:59
2 Melancholy Emperor 5:32
3 Requiem For The Sun 6:54
4 Whores To Oblivion 6:31
5 Alchemist Of Sorrows 7:16
6 Ultra Earth 9:22
7 Astral Queen 6:38
8 Sea Serpent 5:47
9 Templars Arise! (The Return) 13:38

EAC-Log, CUE-Sheed & NFO:

Click to open spoiler
Exact Audio Copy V1.0 beta 1 from 15. November 2010

EAC extraction logfile from 13. March 2012, 19:39

Cathedral / Endtyme (MOSH 236 CD)

Used drive : PIONEER DVD-RW DVR-219L Adapter: 2 ID: 0

Read mode : Secure
Utilize accurate stream : Yes
Defeat audio cache : Yes
Make use of C2 pointers : No

Read offset correction : 6
Overread into Lead-In and Lead-Out : No
Fill up missing offset samples with silence : Yes
Delete leading and trailing silent blocks : No
Null samples used in CRC calculations : Yes
Used interface : Native Win32 interface for Win NT & 2000

Used output format : Internal WAV Routines
Sample format : 44.100 Hz; 16 Bit; Stereo

TOC of the extracted CD

Track | Start | Length | Start sector | End sector
———————————————————
1 | 0:00.00 | 1:59.15 | 0 | 8939
2 | 1:59.15 | 5:32.25 | 8940 | 33864
3 | 7:31.40 | 6:54.36 | 33865 | 64950
4 | 14:26.01 | 6:32.20 | 64951 | 94370
5 | 20:58.21 | 7:16.32 | 94371 | 127102
6 | 28:14.53 | 9:22.20 | 127103 | 169272
7 | 37:36.73 | 6:39.27 | 169273 | 199224
8 | 44:16.25 | 5:48.02 | 199225 | 225326
9 | 50:04.27 | 13:39.47 | 225327 | 286798

Range status and errors

Selected range

Filename F:\.www.AvaxHome.ru\Cathedral – Endtyme (MOSH 236 CD).wav

Peak level 96.6 %
Extraction speed 1.6 X
Range quality 100.0 %
Test CRC B39107FC
Copy CRC B39107FC
Copy OK

No errors occurred

AccurateRip summary

Track 1 accurately ripped (confidence 4) [CA9F7021]
Track 2 accurately ripped (confidence 4) [BF4AEF3E]
Track 3 accurately ripped (confidence 4) [B0196055]
Track 4 accurately ripped (confidence 4) [5175ACF8]
Track 5 accurately ripped (confidence 4) [B16D0EDC]
Track 6 accurately ripped (confidence 4) [7B814D32]
Track 7 accurately ripped (confidence 4) [0FCD50A3]
Track 8 accurately ripped (confidence 4) [34CE9178]
Track 9 accurately ripped (confidence 4) [DB75650E]

All tracks accurately ripped

End of status report

==== Log checksum 2F02B7642B73174DA6C8B6B959B23494402DB23765522964B4749B526FE02799 ====

REM GENRE “Doom Metal”
REM DATE 2001
REM DISCID 760EEF09
REM COMMENT “ExactAudioCopy v1.0b1”
PERFORMER “Cathedral”
TITLE “Endtyme (MOSH 236 CD)”
FILE “Cathedral – Endtyme (MOSH 236 CD).flac” WAVE
TRACK 01 AUDIO
TITLE “Cathedral Flames”
PERFORMER “Cathedral”
INDEX 01 00:00:00
TRACK 02 AUDIO
TITLE “Melancholy Emperor”
PERFORMER “Cathedral”
INDEX 01 01:59:15
TRACK 03 AUDIO
TITLE “Requiem for the Sun”
PERFORMER “Cathedral”
INDEX 01 07:31:40
TRACK 04 AUDIO
TITLE “Whores to Oblivion”
PERFORMER “Cathedral”
INDEX 01 14:26:01
TRACK 05 AUDIO
TITLE “Alchemist of Sorrow”
PERFORMER “Cathedral”
INDEX 01 20:58:21
TRACK 06 AUDIO
TITLE “Ultra Earth”
PERFORMER “Cathedral”
INDEX 01 28:14:53
TRACK 07 AUDIO
TITLE “Astral Queen”
PERFORMER “Cathedral”
INDEX 01 37:36:73
TRACK 08 AUDIO
TITLE “Sea Serpent”
PERFORMER “Cathedral”
INDEX 01 44:16:25
TRACK 09 AUDIO
TITLE “Templars Arise! (The Return)”
PERFORMER “Cathedral”
INDEX 01 50:04:27


0

Publication author

offline 14 hours

Chaos

3
Comments: 4Publics: 3418Registration: 02-02-2019
Spread the Download

Leave a Reply

Your email address will not be published. Required fields are marked *

Enter the text from the image below
 

This site uses Akismet to reduce spam. Learn how your comment data is processed.