Cathedral – Caravan Beyond Redemption




No Cover available

Artist: Cathedral
Year: 1998
Genre: Metal
Notes: Discogs
Add. Notes:
Watch Songs on: YouTube
Cover incl.: Yes
Encoder: FLAC
Bitrate: ~1000 kBit/s (44.1 kHz/16 Bit/s)
Log & Cue incl.: Yes/Yes
Size: 584,47 MB
Password: “slam” (without ” “)


All Downloads/Hosters are compatible

Download 1
KatFile.com
Turbobit.net
Rapidgator.net
FileFactory.com
Download 2
KatFile.com
Turbobit.net
Rapidgator.net
FileFactory.com

Tracklist:

1 - Voodoo Fire - 6:11
2 - The Unnatural World - 4:04
3 - Satanikus Robotikus - 5:01
4 - Freedom - 5:05
5 - Captain Clegg - 6:06
6 - Earth Messiah - 5:17
7 - The Caravan - 3:00
8 - Revolution - 7:08
9 - Kaleidoscope Of Desire - 4:45
10 - Heavy Load - 6:08
11 - The Omega Man - 5:59
12 - Dust Of Paradise - 14:03

EAC-Log, CUE-Sheed & NFO:

Click to open spoiler
Exact Audio Copy V1.0 beta 3 from 29. August 2011

EAC extraction logfile from 5. May 2012, 17:37

Cathedral / Caravan Beyond Redemption (MOSH 211 CD)

Used drive : PIONEER DVD-RW DVR-219L Adapter: 1 ID: 0

Read mode : Secure
Utilize accurate stream : Yes
Defeat audio cache : Yes
Make use of C2 pointers : No

Read offset correction : 6
Overread into Lead-In and Lead-Out : No
Fill up missing offset samples with silence : Yes
Delete leading and trailing silent blocks : No
Null samples used in CRC calculations : Yes
Used interface : Native Win32 interface for Win NT & 2000

Used output format : Internal WAV Routines
Sample format : 44.100 Hz; 16 Bit; Stereo

TOC of the extracted CD

Track | Start | Length | Start sector | End sector
———————————————————
1 | 0:00.00 | 6:11.63 | 0 | 27887
2 | 6:11.63 | 4:04.66 | 27888 | 46253
3 | 10:16.54 | 5:01.42 | 46254 | 68870
4 | 15:18.21 | 5:05.43 | 68871 | 91788
5 | 20:23.64 | 6:06.43 | 91789 | 119281
6 | 26:30.32 | 5:17.63 | 119282 | 143119
7 | 31:48.20 | 3:00.62 | 143120 | 156681
8 | 34:49.07 | 7:08.27 | 156682 | 188808
9 | 41:57.34 | 4:45.42 | 188809 | 210225
10 | 46:43.01 | 6:08.40 | 210226 | 237865
11 | 52:51.41 | 5:59.59 | 237866 | 264849
12 | 58:51.25 | 14:03.55 | 264850 | 328129

Range status and errors

Selected range

Filename D:\.www.AvaxHome.ru\Cathedral – Caravan Beyond Redemption (MOSH 211 CD).wav

Peak level 100.0 %
Extraction speed 8.3 X
Range quality 100.0 %
Test CRC D2FFB1B1
Copy CRC D2FFB1B1
Copy OK

No errors occurred

AccurateRip summary

Track 1 accurately ripped (confidence 2) [720649F9] (AR v1)
Track 2 accurately ripped (confidence 2) [99F69279] (AR v1)
Track 3 accurately ripped (confidence 2) [4A26F84E] (AR v1)
Track 4 accurately ripped (confidence 2) [856BB12B] (AR v1)
Track 5 accurately ripped (confidence 2) [01648A4E] (AR v1)
Track 6 accurately ripped (confidence 2) [683B0E17] (AR v1)
Track 7 accurately ripped (confidence 2) [5A049426] (AR v1)
Track 8 accurately ripped (confidence 2) [9FD7C06E] (AR v1)
Track 9 accurately ripped (confidence 2) [7FDA5863] (AR v1)
Track 10 accurately ripped (confidence 2) [3AF1A4E5] (AR v1)
Track 11 accurately ripped (confidence 2) [EC486AE0] (AR v1)
Track 12 cannot be verified as accurate (confidence 9) [69EF3E6E], AccurateRip returned [03770208] (AR v2)

11 track(s) accurately ripped
1 track(s) could not be verified as accurate

Some tracks could not be verified as accurate

End of status report

—- CUETools DB Plugin V2.1.3

[CTDB TOCID: uS.K0i0g8ETGmUVzkPgNVE9zlaA-] found, Submit result: uS.K0i0g8ETGmUVzkPgNVE9zlaA- has been confirmed
[9f8dbd52] (14/14) Accurately ripped

==== Log checksum 298807144C99C6252D6055701FC18A2EFAC862B979C70C8612453E514058BD44 ====

REM GENRE “Doom Metal”
REM DATE 1998
REM DISCID 9711170C
REM COMMENT “ExactAudioCopy v1.0b3”
PERFORMER “Cathedral”
TITLE “Caravan Beyond Redemption (MOSH 211 CD)”
FILE “Cathedral – Caravan Beyond Redemption (MOSH 211 CD).flac” WAVE
TRACK 01 AUDIO
TITLE “Voodoo Fire”
PERFORMER “Cathedral”
ISRC GBBPB9800128
INDEX 01 00:00:00
TRACK 02 AUDIO
TITLE “The Unnatural World”
PERFORMER “Cathedral”
ISRC GBBPB9800129
INDEX 00 06:09:63
INDEX 01 06:11:63
TRACK 03 AUDIO
TITLE “Satanikus Robotikus”
PERFORMER “Cathedral”
ISRC GBBPB9800130
INDEX 01 10:16:54
TRACK 04 AUDIO
TITLE “Freedom”
PERFORMER “Cathedral”
ISRC GBBPB9800131
INDEX 00 15:17:21
INDEX 01 15:18:21
TRACK 05 AUDIO
TITLE “Captain Clegg”
PERFORMER “Cathedral”
ISRC GBBPB9800132
INDEX 00 20:21:64
INDEX 01 20:23:64
TRACK 06 AUDIO
TITLE “Earth Messiah”
PERFORMER “Cathedral”
ISRC GBBPB9800133
INDEX 00 26:28:32
INDEX 01 26:30:32
TRACK 07 AUDIO
TITLE “The Caravan”
PERFORMER “Cathedral”
ISRC GBBPB9800134
INDEX 01 31:48:20
TRACK 08 AUDIO
TITLE “Revolution”
PERFORMER “Cathedral”
ISRC GBBPB9800135
INDEX 01 34:49:07
TRACK 09 AUDIO
TITLE “Kaleidoscope Of Desire”
PERFORMER “Cathedral”
ISRC GBBPB9800136
INDEX 00 41:54:34
INDEX 01 41:57:34
TRACK 10 AUDIO
TITLE “Heavy Load”
PERFORMER “Cathedral”
ISRC GBBPB9800137
INDEX 01 46:43:01
TRACK 11 AUDIO
TITLE “The Omega Man”
PERFORMER “Cathedral”
ISRC GBBPB9800138
INDEX 00 52:48:41
INDEX 01 52:51:41
TRACK 12 AUDIO
TITLE “Dust Of Paradise”
PERFORMER “Cathedral”
ISRC GBBPB9800139
INDEX 01 58:51:25


0

Publication author

offline 15 hours

Chaos

3
Comments: 4Publics: 3418Registration: 02-02-2019
Spread the Download

Leave a Reply

Your email address will not be published. Required fields are marked *

Enter the text from the image below
 

This site uses Akismet to reduce spam. Learn how your comment data is processed.