Cathedra – Soul Sacrifice / Statik Majik




No Cover available

Artist: Cathedra
Year: 1999/2003
Genre: Metal
Notes: Discogs
Add. Notes:
Watch Songs on: YouTube
Cover incl.: Yes
Encoder: FLAC
Bitrate: ~1000 kBit/s (44.1 kHz/16 Bit/s)
Log & Cue incl.: Yes/Yes
Size: 539,2 MB
Password: “slam” (without ” “)


All Downloads/Hosters are compatible

Download 1
KatFile.com
Turbobit.net
Rapidgator.net
FileFactory.com
Download 2
KatFile.com
Turbobit.net
Rapidgator.net
FileFactory.com

Tracklist:

1 Soul Sacrifice 4:35
2 Autumn Twilight 5:50
3 Frozen Rapture 6:12
4 Golden Blood (Flooding) 8:09
5 Midnight Mountain 4:55
6 Hypnos 164 5:43
7 Cosmic Funeral 7:00
8 The Voyage Of The Homeless Sapien 22:44

EAC-Log, CUE-Sheed & NFO:

Click to open spoiler
Exact Audio Copy V1.0 beta 3 from 29. August 2011

EAC extraction logfile from 2. July 2012, 18:51

Cathedral / Soul Sacrifice/Statik Majik (2002, 2374-2)

Used drive : PIONEER DVD-RW DVR-219L Adapter: 1 ID: 0

Read mode : Secure
Utilize accurate stream : Yes
Defeat audio cache : Yes
Make use of C2 pointers : No

Read offset correction : 6
Overread into Lead-In and Lead-Out : No
Fill up missing offset samples with silence : Yes
Delete leading and trailing silent blocks : No
Null samples used in CRC calculations : Yes
Used interface : Native Win32 interface for Win NT & 2000

Used output format : Internal WAV Routines
Sample format : 44.100 Hz; 16 Bit; Stereo

TOC of the extracted CD

Track | Start | Length | Start sector | End sector
———————————————————
1 | 0:00.00 | 4:35.28 | 0 | 20652
2 | 4:35.28 | 5:50.06 | 20653 | 46908
3 | 10:25.34 | 6:12.10 | 46909 | 74818
4 | 16:37.44 | 8:14.11 | 74819 | 111879
5 | 24:51.55 | 4:55.29 | 111880 | 134033
6 | 29:47.09 | 5:43.24 | 134034 | 159782
7 | 35:30.33 | 7:00.74 | 159783 | 191356
8 | 42:31.32 | 22:44.20 | 191357 | 293676

Range status and errors

Selected range

Filename D:\.www.AvaxHome.ru\Cathedral – Soul Sacrifice – Statik Majik (2002, 2374-2).wav

Peak level 100.0 %
Extraction speed 7.3 X
Range quality 100.0 %
Test CRC B01113DF
Copy CRC B01113DF
Copy OK

No errors occurred

AccurateRip summary

Track 1 cannot be verified as accurate (confidence 2) [50ACCA99], AccurateRip returned [440710F8] (AR v2)
Track 2 cannot be verified as accurate (confidence 2) [FD4E1355], AccurateRip returned [B80180FE] (AR v2)
Track 3 cannot be verified as accurate (confidence 2) [04137500], AccurateRip returned [E1AECE6E] (AR v2)
Track 4 cannot be verified as accurate (confidence 2) [98493C84], AccurateRip returned [6AF4E40E] (AR v2)
Track 5 cannot be verified as accurate (confidence 2) [B42024A1], AccurateRip returned [37907E98] (AR v2)
Track 6 cannot be verified as accurate (confidence 2) [535A3D5A], AccurateRip returned [FE737DA7] (AR v2)
Track 7 cannot be verified as accurate (confidence 2) [02C42160], AccurateRip returned [3789467E] (AR v2)
Track 8 cannot be verified as accurate (confidence 2) [3DAB0CB7], AccurateRip returned [8D26A8D7] (AR v2)

No tracks could be verified as accurate
You may have a different pressing from the one(s) in the database

End of status report

—- CUETools DB Plugin V2.1.3

[CTDB TOCID: g1IYGeZPc6PGP1CfZMU2wMwpV94-] disk not present in database, Submit result: g1IYGeZPc6PGP1CfZMU2wMwpV94- has been uploaded

==== Log checksum 1571B7359D13904A373BE3096A4A9B05E41A4AD6759CFB2B40FF6205B91FE3F9 ====

REM GENRE “Stoner Doom Metal”
REM DATE 1999
REM DISCID 7D0F4B08
REM COMMENT “ExactAudioCopy v1.0b3”
PERFORMER “Cathedral”
TITLE “Soul Sacrifice/Statik Majik (2002, 2374-2)”
FILE “Cathedral – Soul Sacrifice – Statik Majik (2002, 2374-2).flac” WAVE
TRACK 01 AUDIO
TITLE “Soul Sacrifice”
PERFORMER “Cathedral”
INDEX 01 00:00:00
TRACK 02 AUDIO
TITLE “Autumn Twilight”
PERFORMER “Cathedral”
INDEX 00 04:33:03
INDEX 01 04:35:28
TRACK 03 AUDIO
TITLE “Frozen Rapture”
PERFORMER “Cathedral”
INDEX 00 10:24:67
INDEX 01 10:25:34
TRACK 04 AUDIO
TITLE “Golden Blood (Flooding)”
PERFORMER “Cathedral”
INDEX 00 16:34:24
INDEX 01 16:37:44
TRACK 05 AUDIO
TITLE “Midnight Mountain”
PERFORMER “Cathedral”
INDEX 00 24:48:56
INDEX 01 24:51:55
TRACK 06 AUDIO
TITLE “Hypnos 164”
PERFORMER “Cathedral”
INDEX 01 29:47:09
TRACK 07 AUDIO
TITLE “Cosmic Funeral”
PERFORMER “Cathedral”
INDEX 00 35:30:28
INDEX 01 35:30:33
TRACK 08 AUDIO
TITLE “The Voyage Of The Homeless Sapien”
PERFORMER “Cathedral”
INDEX 00 42:31:11
INDEX 01 42:31:32


0

Publication author

offline 9 hours

Chaos

3
Comments: 4Publics: 3424Registration: 02-02-2019
Spread the Download

Leave a Reply

Your email address will not be published. Required fields are marked *

Enter the text from the image below
 

This site uses Akismet to reduce spam. Learn how your comment data is processed.