Catch 22 – Washed Up And Through The Ringer!




Artist: Catch 22
Year: 2001
Genre: Ska
Notes: Discogs
Add. Notes:
Cover incl.: Yes
Encoder: FLAC
Bitrate: ~1000 kBit/s (44.1 kHz/16 Bit/s)
Log & Cue incl.: Yes
Size: 344,07 MB
Password: “slam” (without ” “)


All Downloads/Hosters are compatible

Download 1
Turbobit.net
Rapidgator.net
UploadEver.com
KatFile.com
UsersDrive.com
Download 2
Turbobit.net
Rapidgator.net
UploadEver.com
KatFile.com
UsersDrive.com
Download 3
Turbobit.net
Rapidgator.net
UploadEver.com
KatFile.com
UsersDrive.com

Tracklist:

1 - Straight Forward - 2:03
2 - To Be Continued - 1:17
3 - Sincerely Yours - 1:08
4 - One Love / People Get Ready - 2:42
5 - Leaving - 2:15
6 - Hard To Impress - 2:05
7 - American Pie - 2:12
8 - What Goes Around Comes Around (Live) - 2:43
9 - Hard To Impress (Live) - 3:02
10 - It Takes Some Time (Live) - 3:55
11 - Arm To Arm (Live) - 2:29
12 - Thinking About Things (Live) - 2:00
13 - American Pie (Live) - 3:34
14 - No Love For The Roadie - 7:39
15 - The Death Of My Blood Is Your Indulgence - 0:49
Bonus Tracks
16 - Blowin' In The Wind / On & On & On (Live) - 3:46
17 - Kristina She Don't Know I Exist (Live) - 3:02
18 - 9mm & A 3 Piece Suit (Live) - 1:57

EAC-Log, CUE-Sheed & NFO:

Click to open spoiler
EAC extraction logfile from 23. July 2008, 16:17 for CD
Catch 22 / Washed Up And Through The Ringer!

Used drive : MATSHITAUJ-840D Adapter: 1 ID: 0
Read mode : Secure with NO C2, accurate stream, disable cache
Read offset correction : 102
Overread into Lead-In and Lead-Out : No

Used output format : C:\Program Files\Exact Audio Copy\flac.exe (User Defined Encoder)
192 kBit/s
Additional command line options : -8 -A tukey(0.25) -A gauss(0.1875) -b 4096 -V -T “artist=%a” -T “title=%t” -T “album=%g” -T “date=%y” -T “tracknumber=%n” -T “genre=%m” %s –sector-align

Other options :
Fill up missing offset samples with silence : Yes
Delete leading and trailing silent blocks : No
Installed external ASPI interface

Track 1
Filename E:\FLACS\Catch 22\Washed Up And Through The Ringer!\01 – Catch 22 – Straight Forward.wav

Pre-gap length 0:00:02.00

Peak level 98.3 %
Track quality 100.0 %
Test CRC B8A42A25
Copy CRC B8A42A25
Copy OK

Track 2
Filename E:\FLACS\Catch 22\Washed Up And Through The Ringer!\02 – Catch 22 – To Be Continued.wav

Peak level 98.3 %
Track quality 100.0 %
Test CRC 37355DB9
Copy CRC 37355DB9
Copy OK

Track 3
Filename E:\FLACS\Catch 22\Washed Up And Through The Ringer!\03 – Catch 22 – Sincerely Yours.wav

Peak level 96.6 %
Track quality 100.0 %
Test CRC B5C3607B
Copy CRC B5C3607B
Copy OK

Track 4
Filename E:\FLACS\Catch 22\Washed Up And Through The Ringer!\04 – Catch 22 – One Love,People Get Ready.wav

Peak level 96.6 %
Track quality 100.0 %
Test CRC 51521254
Copy CRC 51521254
Copy OK

Track 5
Filename E:\FLACS\Catch 22\Washed Up And Through The Ringer!\05 – Catch 22 – Leaving.wav

Peak level 98.8 %
Track quality 100.0 %
Test CRC C4CFAD77
Copy CRC C4CFAD77
Copy OK

Track 6
Filename E:\FLACS\Catch 22\Washed Up And Through The Ringer!\06 – Catch 22 – Hard To Impress.wav

Peak level 98.8 %
Track quality 100.0 %
Test CRC 5BC72B57
Copy CRC 5BC72B57
Copy OK

Track 7
Filename E:\FLACS\Catch 22\Washed Up And Through The Ringer!\07 – Catch 22 – American Pie.wav

Pre-gap length 0:00:00.60

Peak level 98.8 %
Track quality 100.0 %
Test CRC B5A73B3E
Copy CRC B5A73B3E
Copy OK

Track 8
Filename E:\FLACS\Catch 22\Washed Up And Through The Ringer!\08 – Catch 22 – What Goes Around Comes Around [Live].wav

Pre-gap length 0:00:00.60

Peak level 98.8 %
Track quality 100.0 %
Test CRC 201C4C8B
Copy CRC 201C4C8B
Copy OK

Track 9
Filename E:\FLACS\Catch 22\Washed Up And Through The Ringer!\09 – Catch 22 – Hard To Impress [Live].wav

Peak level 98.8 %
Track quality 100.0 %
Test CRC 39D6FE34
Copy CRC 39D6FE34
Copy OK

Track 10
Filename E:\FLACS\Catch 22\Washed Up And Through The Ringer!\10 – Catch 22 – It Takes Some Time [Live].wav

Peak level 98.8 %
Track quality 100.0 %
Test CRC C8FBDB1A
Copy CRC C8FBDB1A
Copy OK

Track 11
Filename E:\FLACS\Catch 22\Washed Up And Through The Ringer!\11 – Catch 22 – Arm To Arm [Live].wav

Peak level 98.8 %
Track quality 100.0 %
Test CRC 85CE474D
Copy CRC 85CE474D
Copy OK

Track 12
Filename E:\FLACS\Catch 22\Washed Up And Through The Ringer!\12 – Catch 22 – Thinking About Things [Live].wav

Peak level 98.8 %
Track quality 100.0 %
Test CRC 638230E6
Copy CRC 638230E6
Copy OK

Track 13
Filename E:\FLACS\Catch 22\Washed Up And Through The Ringer!\13 – Catch 22 – American Pie [Live].wav

Peak level 98.8 %
Track quality 100.0 %
Test CRC D7B4325C
Copy CRC D7B4325C
Copy OK

Track 14
Filename E:\FLACS\Catch 22\Washed Up And Through The Ringer!\14 – Catch 22 – No Love For The Roadie.wav

Pre-gap length 0:00:00.60

Peak level 96.6 %
Track quality 100.0 %
Test CRC 2C3FA763
Copy CRC 2C3FA763
Copy OK

Track 15
Filename E:\FLACS\Catch 22\Washed Up And Through The Ringer!\15 – Catch 22 – The Death Of My Blood Is Your Indulgence.wav

Pre-gap length 0:00:00.60

Peak level 98.8 %
Track quality 100.0 %
Test CRC 0759ACFE
Copy CRC 0759ACFE
Copy OK

Track 16
Filename E:\FLACS\Catch 22\Washed Up And Through The Ringer!\16 – Catch 22 – On & On & On [Live].wav

Pre-gap length 0:00:00.60

Peak level 98.8 %
Track quality 100.0 %
Test CRC 630B271B
Copy CRC 630B271B
Copy OK

Track 17
Filename E:\FLACS\Catch 22\Washed Up And Through The Ringer!\17 – Catch 22 – Kristina She Doesn’t Know I Exist [Live].wav

Peak level 98.8 %
Track quality 100.0 %
Test CRC 9FF9A0AE
Copy CRC 9FF9A0AE
Copy OK

Track 18
Filename E:\FLACS\Catch 22\Washed Up And Through The Ringer!\18 – Catch 22 – 9mm And A Three Piece Suit.wav

Peak level 98.8 %
Track quality 100.0 %
Test CRC 65004C0C
Copy CRC 65004C0C
Copy OK

No errors occured

End of status report

REM GENRE Ska
REM DATE 2001
REM DISCID FE0B5412
REM COMMENT “ExactAudioCopy v0.95b3”
PERFORMER “Catch 22”
TITLE “Washed Up And Through The Ringer!”
FILE “01 – Catch 22 – Straight Forward.wav” WAVE
TRACK 01 AUDIO
TITLE “Straight Forward”
PERFORMER “Catch 22”
FLAGS DCP
INDEX 01 00:00:00
FILE “02 – Catch 22 – To Be Continued.wav” WAVE
TRACK 02 AUDIO
TITLE “To Be Continued”
PERFORMER “Catch 22”
FLAGS DCP
INDEX 01 00:00:00
FILE “03 – Catch 22 – Sincerely Yours.wav” WAVE
TRACK 03 AUDIO
TITLE “Sincerely Yours”
PERFORMER “Catch 22”
FLAGS DCP
INDEX 01 00:00:00
FILE “04 – Catch 22 – One Love,People Get Ready.wav” WAVE
TRACK 04 AUDIO
TITLE “One Love/People Get Ready”
PERFORMER “Catch 22”
FLAGS DCP
INDEX 01 00:00:00
FILE “05 – Catch 22 – Leaving.wav” WAVE
TRACK 05 AUDIO
TITLE “Leaving”
PERFORMER “Catch 22”
FLAGS DCP
INDEX 01 00:00:00
FILE “06 – Catch 22 – Hard To Impress.wav” WAVE
TRACK 06 AUDIO
TITLE “Hard To Impress”
PERFORMER “Catch 22”
FLAGS DCP
INDEX 01 00:00:00
TRACK 07 AUDIO
TITLE “American Pie”
PERFORMER “Catch 22”
FLAGS DCP
INDEX 00 02:04:36
FILE “07 – Catch 22 – American Pie.wav” WAVE
INDEX 01 00:00:00
TRACK 08 AUDIO
TITLE “What Goes Around Comes Around [Live]”
PERFORMER “Catch 22”
FLAGS DCP
INDEX 00 02:10:47
FILE “08 – Catch 22 – What Goes Around Comes Around [Live].wav” WAVE
INDEX 01 00:00:00
FILE “09 – Catch 22 – Hard To Impress [Live].wav” WAVE
TRACK 09 AUDIO
TITLE “Hard To Impress [Live]”
PERFORMER “Catch 22”
FLAGS DCP
INDEX 01 00:00:00
FILE “10 – Catch 22 – It Takes Some Time [Live].wav” WAVE
TRACK 10 AUDIO
TITLE “It Takes Some Time [Live]”
PERFORMER “Catch 22”
FLAGS DCP
INDEX 01 00:00:00
FILE “11 – Catch 22 – Arm To Arm [Live].wav” WAVE
TRACK 11 AUDIO
TITLE “Arm To Arm [Live]”
PERFORMER “Catch 22”
FLAGS DCP
INDEX 01 00:00:00
FILE “12 – Catch 22 – Thinking About Things [Live].wav” WAVE
TRACK 12 AUDIO
TITLE “Thinking About Things [Live]”
PERFORMER “Catch 22”
FLAGS DCP
INDEX 01 00:00:00
FILE “13 – Catch 22 – American Pie [Live].wav” WAVE
TRACK 13 AUDIO
TITLE “American Pie [Live]”
PERFORMER “Catch 22”
FLAGS DCP
INDEX 01 00:00:00
TRACK 14 AUDIO
TITLE “No Love For The Roadie”
PERFORMER “Catch 22”
FLAGS DCP
INDEX 00 03:33:72
FILE “14 – Catch 22 – No Love For The Roadie.wav” WAVE
INDEX 01 00:00:00
TRACK 15 AUDIO
TITLE “The Death Of My Blood Is Your Indulgence”
PERFORMER “Catch 22”
FLAGS DCP
INDEX 00 07:38:28
FILE “15 – Catch 22 – The Death Of My Blood Is Your Indulgence.wav” WAVE
INDEX 01 00:00:00
TRACK 16 AUDIO
TITLE “On & On & On [Live]”
PERFORMER “Catch 22”
FLAGS DCP
INDEX 00 00:48:30
FILE “16 – Catch 22 – On & On & On [Live].wav” WAVE
INDEX 01 00:00:00
FILE “17 – Catch 22 – Kristina She Doesn’t Know I Exist [Live].wav” WAVE
TRACK 17 AUDIO
TITLE “Kristina She Doesn’t Know I Exist [Live]”
PERFORMER “Catch 22”
FLAGS DCP
INDEX 01 00:00:00
FILE “18 – Catch 22 – 9mm And A Three Piece Suit.wav” WAVE
TRACK 18 AUDIO
TITLE “9mm And A Three Piece Suit”
PERFORMER “Catch 22”
FLAGS DCP
INDEX 01 00:00:00


Leave a Reply

Your email address will not be published. Required fields are marked *

This site uses Akismet to reduce spam. Learn how your comment data is processed.