Catch 22 – Washed Up!




Artist: Catch 22
Year: 1999
Genre: Ska
Notes: Discogs
Add. Notes:
Cover incl.: Yes
Encoder: FLAC
Bitrate: ~900 kBit/s (44.1 kHz/16 Bit/s)
Log & Cue incl.: Yes
Size: 116 MB
Password: “slam” (without ” “)


All Downloads/Hosters are compatible

Download 1
Turbobit.net
Rapidgator.net
UploadEver.com
KatFile.com
UsersDrive.com
Download 2
Turbobit.net
Rapidgator.net
UploadEver.com
KatFile.com
UsersDrive.com
Download 3
Turbobit.net
Rapidgator.net
UploadEver.com
KatFile.com
UsersDrive.com

Tracklist:

1. Leaving. 2:18
2. Hard To Impress. 2:06
3. American Pie. 2:12
4. The Death Of My Blood Is Your 
Indulgence. 24:55

EAC-Log, CUE-Sheed & NFO:

Click to open spoiler
EAC extraction logfile from 11. May 2009, 15:12 for CD
Catch 22 / Washed Up! EP

Used drive : TSSTcorpCDDVDW TS-H653Q Adapter: 2 ID: 1
Read mode : Secure with NO C2, accurate stream, disable cache
Read offset correction : 6
Overread into Lead-In and Lead-Out : No

Used output format : C:\Program Files (x86)\FLAC\flac.exe (User Defined Encoder)
192 kBit/s
Additional command line options : -V -8 -T “artist=%a” -T “title=%t” -T “album=%g” -T “date=%y” -T “tracknumber=%n” -T “genre=%m” %s

Other options :
Fill up missing offset samples with silence : Yes
Delete leading and trailing silent blocks : No
Native Win32 interface for Win NT & 2000

Track 1
Filename C:\Users\ANTRON\Desktop\1999 -Catch 22 – Washed Up EP FLAC\01 – Catch 22 – Leaving.wav

Pre-gap length 0:00:02.00

Peak level 98.8 %
Track quality 100.0 %
Test CRC F94E63F2
Copy CRC F94E63F2
Copy OK

Track 2
Filename C:\Users\ANTRON\Desktop\1999 -Catch 22 – Washed Up EP FLAC\02 – Catch 22 – Hard To Impress.wav

Pre-gap length 0:00:02.00

Peak level 98.8 %
Track quality 100.0 %
Test CRC D3459A81
Copy CRC D3459A81
Copy OK

Track 3
Filename C:\Users\ANTRON\Desktop\1999 -Catch 22 – Washed Up EP FLAC\03 – Catch 22 – American Pie (Don McLean cover).wav

Pre-gap length 0:00:02.00

Peak level 98.8 %
Track quality 100.0 %
Test CRC 35700494
Copy CRC 35700494
Copy OK

Track 4
Filename C:\Users\ANTRON\Desktop\1999 -Catch 22 – Washed Up EP FLAC\04 – Catch 22 – The Death Of My Blood Is Your Indulgence (On & On & On, Kristina She Don’t Know I Exist, & 9mm And A Piece Suit).wav

Pre-gap length 0:00:02.00

Peak level 98.8 %
Track quality 99.9 %
Test CRC 67EDC533
Copy CRC 67EDC533
Copy OK

No errors occured

End of status report


Leave a Reply

Your email address will not be published. Required fields are marked *

This site uses Akismet to reduce spam. Learn how your comment data is processed.