Catch 22 – Permanent Revolution




[Total: 0    Average: 0/5]

Artist: Catch 22
Year: 2006
Genre: Ska
Notes: Discogs
Add. Notes:
Cover incl.: Yes
Encoder: FLAC
Bitrate: ~800 kBit/s (44.1 kHz/16 Bit/s)
Log & Cue incl.: Yes
Size: 230,57 MB
Password: “slam” (without ” “)


All Downloads/Hosters are compatible

Download 1
Share-online.biz
KatFile.com
Rapidgator.net
Download 2
Share-online.biz
KatFile.com
Rapidgator.net

Tracklist:

1 - Prologue - 3:10
2 - The Spark (1902) - 2:56
3 - Party Song (1917) - 2:44
4 - The Decembrists’ Song (1921) - 3:36
5 - A Minor Point (1922) - 2:14
6 - On The Black Sea (1924) - 3:39
7 - Bad Party (1927) - 2:22
8 - Alma Ata (1928) - 3:29
9 - The Purge (1936) - 2:37
10 - Opportunity (1940) - 3:20
11 - Epilogue - 3:27

EAC-Log, CUE-Sheed & NFO:

Click to open spoiler
Exact Audio Copy V0.99 prebeta 4 from 23. January 2008

EAC extraction logfile from 3. May 2009, 23:24

Catch 22 / Permanent Revolution

Used drive : _NEC DVD_RW ND-3540A Adapter: 0 ID: 0

Read mode : Secure
Utilize accurate stream : Yes
Defeat audio cache : Yes
Make use of C2 pointers : No

Read offset correction : 48
Overread into Lead-In and Lead-Out : No
Fill up missing offset samples with silence : Yes
Delete leading and trailing silent blocks : No
Null samples used in CRC calculations : Yes
Used interface : Native Win32 interface for Win NT & 2000
Gap handling : Appended to previous track

Used output format : User Defined Encoder
Selected bitrate : 768 kBit/s
Quality : High
Add ID3 tag : No
Command line compressor : C:\Program Files (x86)\Exact Audio Copy\FLAC\FLAC.EXE
Additional command line options : -V -8 -T “artist=%a” -T “title=%t” -T “album=%g” -T “date=%y” -T “tracknumber=%n” -T “genre=%m” %s

TOC of the extracted CD

Track | Start | Length | Start sector | End sector
———————————————————
1 | 0:00.00 | 3:10.70 | 0 | 14319
2 | 3:10.70 | 2:56.60 | 14320 | 27579
3 | 6:07.55 | 2:44.54 | 27580 | 39933
4 | 8:52.34 | 3:36.22 | 39934 | 56155
5 | 12:28.56 | 2:14.39 | 56156 | 66244
6 | 14:43.20 | 3:39.06 | 66245 | 82675
7 | 18:22.26 | 2:22.15 | 82676 | 93340
8 | 20:44.41 | 3:29.45 | 93341 | 109060
9 | 24:14.11 | 2:37.31 | 109061 | 120866
10 | 26:51.42 | 3:20.64 | 120867 | 135930
11 | 30:12.31 | 3:27.40 | 135931 | 151495

Track 1

Filename D:\Ripped Music\Catch 22 (2006) Permanent Revolution [FLAC]\01 Prologue.wav

Pre-gap length 0:00:02.00

Peak level 99.1 %
Track quality 99.9 %
Test CRC 8B5226E5
Copy CRC 8B5226E5
Accurately ripped (confidence 1) [0BF08319]
Copy OK

Track 2

Filename D:\Ripped Music\Catch 22 (2006) Permanent Revolution [FLAC]\02 The Spark.wav

Peak level 99.1 %
Track quality 100.0 %
Test CRC A7CB48E3
Copy CRC A7CB48E3
Accurately ripped (confidence 1) [AE04D7E4]
Copy OK

Track 3

Filename D:\Ripped Music\Catch 22 (2006) Permanent Revolution [FLAC]\03 Party Song.wav

Peak level 99.1 %
Track quality 99.9 %
Test CRC 979F4257
Copy CRC 979F4257
Accurately ripped (confidence 1) [7BA92DB2]
Copy OK

Track 4

Filename D:\Ripped Music\Catch 22 (2006) Permanent Revolution [FLAC]\04 The Decembrists’ Song.wav

Peak level 99.1 %
Track quality 100.0 %
Test CRC 9ED2E9A1
Copy CRC 9ED2E9A1
Accurately ripped (confidence 1) [83C8775A]
Copy OK

Track 5

Filename D:\Ripped Music\Catch 22 (2006) Permanent Revolution [FLAC]\05 A Minor Point.wav

Peak level 99.1 %
Track quality 100.0 %
Test CRC 0E622087
Copy CRC 0E622087
Accurately ripped (confidence 1) [27AB452C]
Copy OK

Track 6

Filename D:\Ripped Music\Catch 22 (2006) Permanent Revolution [FLAC]\06 On the Black Sea.wav

Peak level 98.9 %
Track quality 100.0 %
Test CRC 787A89F1
Copy CRC 787A89F1
Accurately ripped (confidence 1) [205B59B7]
Copy OK

Track 7

Filename D:\Ripped Music\Catch 22 (2006) Permanent Revolution [FLAC]\07 Bad Party.wav

Peak level 99.1 %
Track quality 100.0 %
Test CRC 539FC420
Copy CRC 539FC420
Accurately ripped (confidence 1) [F725D43C]
Copy OK

Track 8

Filename D:\Ripped Music\Catch 22 (2006) Permanent Revolution [FLAC]\08 Alma Ata.wav

Peak level 96.4 %
Track quality 100.0 %
Test CRC C96AA663
Copy CRC C96AA663
Accurately ripped (confidence 1) [57881DE8]
Copy OK

Track 9

Filename D:\Ripped Music\Catch 22 (2006) Permanent Revolution [FLAC]\09 The Purge.wav

Peak level 99.1 %
Track quality 99.9 %
Test CRC ACFE04CD
Copy CRC ACFE04CD
Accurately ripped (confidence 1) [EC079DFD]
Copy OK

Track 10

Filename D:\Ripped Music\Catch 22 (2006) Permanent Revolution [FLAC]\10 Opportunity.wav

Peak level 99.1 %
Track quality 100.0 %
Test CRC 1DE96DAF
Copy CRC 1DE96DAF
Accurately ripped (confidence 1) [1F17BD8B]
Copy OK

Track 11

Filename D:\Ripped Music\Catch 22 (2006) Permanent Revolution [FLAC]\11 Epilogue.wav

Peak level 74.6 %
Track quality 99.9 %
Test CRC 9A21C6CA
Copy CRC 9A21C6CA
Accurately ripped (confidence 1) [F69CE1D4]
Copy OK

All tracks accurately ripped

No errors occurred

End of status report

REM GENRE Ska
REM DATE 2006
REM DISCID 8907E30B
REM COMMENT “ExactAudioCopy v0.99pb4”
FILE “Catch 22 (2006) Permanent Revolution [FLAC]\01 Prologue.wav” WAVE
TRACK 01 AUDIO
INDEX 01 00:00:00
FILE “Catch 22 (2006) Permanent Revolution [FLAC]\02 The Spark.wav” WAVE
TRACK 02 AUDIO
INDEX 01 00:00:00
FILE “Catch 22 (2006) Permanent Revolution [FLAC]\03 Party Song.wav” WAVE
TRACK 03 AUDIO
INDEX 01 00:00:00
FILE “Catch 22 (2006) Permanent Revolution [FLAC]\04 The Decembrists’ Song.wav” WAVE
TRACK 04 AUDIO
INDEX 01 00:00:00
FILE “Catch 22 (2006) Permanent Revolution [FLAC]\05 A Minor Point.wav” WAVE
TRACK 05 AUDIO
INDEX 01 00:00:00
FILE “Catch 22 (2006) Permanent Revolution [FLAC]\06 On the Black Sea.wav” WAVE
TRACK 06 AUDIO
INDEX 01 00:00:00
FILE “Catch 22 (2006) Permanent Revolution [FLAC]\07 Bad Party.wav” WAVE
TRACK 07 AUDIO
INDEX 01 00:00:00
FILE “Catch 22 (2006) Permanent Revolution [FLAC]\08 Alma Ata.wav” WAVE
TRACK 08 AUDIO
INDEX 01 00:00:00
FILE “Catch 22 (2006) Permanent Revolution [FLAC]\09 The Purge.wav” WAVE
TRACK 09 AUDIO
INDEX 01 00:00:00
FILE “Catch 22 (2006) Permanent Revolution [FLAC]\10 Opportunity.wav” WAVE
TRACK 10 AUDIO
INDEX 01 00:00:00
FILE “Catch 22 (2006) Permanent Revolution [FLAC]\11 Epilogue.wav” WAVE
TRACK 11 AUDIO
INDEX 01 00:00:00


Spread the Download

Leave a Reply

Your email address will not be published. Required fields are marked *

Enter the text from the image below
 

This site uses Akismet to reduce spam. Learn how your comment data is processed.