Catch 22 – Live




Artist: Catch 22
Year: 2004
Genre: Ska
Notes: Discogs
Add. Notes:
Cover incl.: Yes
Encoder: FLAC
Bitrate: ~1000 kBit/s (44.1 kHz/16 Bit/s)
Log & Cue incl.: Yes
Size: 397,57 MB
Password: “slam” (without ” “)


All Downloads/Hosters are compatible

Download 1
Turbobit.net
Rapidgator.net
KatFile.com
UploadRar.com
Download 2
Turbobit.net
Rapidgator.net
KatFile.com
UploadRar.com

Tracklist:

1 - Welcome - 0:26
2 - Lamont’s Lament - 1:46
3 - Rocky - 3:24
4 - It Takes Some Time - 3:09
5 - On And On And On - 2:58
6 - Motown Cinderella - 2:13
7 - Riding The Fourth Wave - 1:25
8 - Sounds Good, But I Don’t Know - 1:48
9 - Sick And Sad - 2:23
10 - Chin Up - 2:59
11 - 9mm And A 3 Piece Suit - 1:52
12 - Good Times - 3:15
13 - Dear Sergio - 2:31
14 - Intro / Point The Blame - 2:23
15 - Sincerely Yours - 1:54
16 - Dreams Of Venus - 3:11
17 - What Goes Around Comes Around - 3:27
18 - Arm To Arm - 2:19
19 - Keasbey Nights - 3:55
20 - Chasing The Moon - 1:14
21 - 1234 1234 - 4:45

EAC-Log, CUE-Sheed & NFO:

Click to open spoiler
EAC extraction logfile from 18. March 2006, 0:41 for CD
Catch 22 / Catch 22 Live

Used drive : SAMSUNG CD-ROM SC-148C Adapter: 1 ID: 0
Read mode : Secure with NO C2, accurate stream, disable cache
Read offset correction : 12
Overread into Lead-In and Lead-Out : No

Used output format : C:\Program Files\FLAC\flac.exe (User Defined Encoder)
128 kBit/s
Additional command line options : -V -8 -T “artist=%a” -T “title=%t” -T “album=%g” -T “date=%y” -T “tracknumber=%n” -T “genre=%m” %s

Other options :
Fill up missing offset samples with silence : Yes
Delete leading and trailing silent blocks : No
Installed external ASPI interface

Track 1
Filename C:\Documents and Settings\Jut.MAINDELL\My Documents\Oink\Catch 22 Live\Catch 22\Catch 22 Live\01 – Welcome.wav

Pre-gap length 0:00:02.00

Peak level 97.2 %
Track quality 100.0 %
Test CRC 09AFA02B
Copy CRC 09AFA02B
Copy OK

Track 2
Filename C:\Documents and Settings\Jut.MAINDELL\My Documents\Oink\Catch 22 Live\Catch 22\Catch 22 Live\02 – Lamont’s Lament.wav

Peak level 97.5 %
Track quality 100.0 %
Test CRC 2F27A8DF
Copy CRC 2F27A8DF
Copy OK

Track 3
Filename C:\Documents and Settings\Jut.MAINDELL\My Documents\Oink\Catch 22 Live\Catch 22\Catch 22 Live\03 – Rocky.wav

Peak level 97.8 %
Track quality 99.8 %
Test CRC DBF08D0A
Copy CRC DBF08D0A
Copy OK

Track 4
Filename C:\Documents and Settings\Jut.MAINDELL\My Documents\Oink\Catch 22 Live\Catch 22\Catch 22 Live\04 – It Takes Some Time.wav

Peak level 97.6 %
Track quality 99.8 %
Test CRC 9D03308B
Copy CRC 9D03308B
Copy OK

Track 5
Filename C:\Documents and Settings\Jut.MAINDELL\My Documents\Oink\Catch 22 Live\Catch 22\Catch 22 Live\05 – On and On and On.wav

Peak level 97.5 %
Track quality 99.8 %
Test CRC FB67CA8E
Copy CRC FB67CA8E
Copy OK

Track 6
Filename C:\Documents and Settings\Jut.MAINDELL\My Documents\Oink\Catch 22 Live\Catch 22\Catch 22 Live\06 – Motown Cinderella.wav

Peak level 97.6 %
Track quality 100.0 %
Test CRC 84938712
Copy CRC 84938712
Copy OK

Track 7
Filename C:\Documents and Settings\Jut.MAINDELL\My Documents\Oink\Catch 22 Live\Catch 22\Catch 22 Live\07 – Riding the Fourth Wave.wav

Peak level 97.7 %
Track quality 99.8 %
Test CRC 7CF67D8E
Copy CRC 7CF67D8E
Copy OK

Track 8
Filename C:\Documents and Settings\Jut.MAINDELL\My Documents\Oink\Catch 22 Live\Catch 22\Catch 22 Live\08 – Sounds Good, But I Don’t Know.wav

Peak level 97.7 %
Track quality 99.9 %
Test CRC C7CC6A33
Copy CRC C7CC6A33
Copy OK

Track 9
Filename C:\Documents and Settings\Jut.MAINDELL\My Documents\Oink\Catch 22 Live\Catch 22\Catch 22 Live\09 – Sick and Sad.wav

Peak level 97.8 %
Track quality 99.9 %
Test CRC 402337D8
Copy CRC 402337D8
Copy OK

Track 10
Filename C:\Documents and Settings\Jut.MAINDELL\My Documents\Oink\Catch 22 Live\Catch 22\Catch 22 Live\10 – Chin Up.wav

Peak level 97.8 %
Track quality 99.9 %
Test CRC 1919EB9C
Copy CRC 1919EB9C
Copy OK

Track 11
Filename C:\Documents and Settings\Jut.MAINDELL\My Documents\Oink\Catch 22 Live\Catch 22\Catch 22 Live\11 – 9mm and A 3 Piece Suit.wav

Peak level 97.7 %
Track quality 100.0 %
Test CRC FFEDA8EB
Copy CRC FFEDA8EB
Copy OK

Track 12
Filename C:\Documents and Settings\Jut.MAINDELL\My Documents\Oink\Catch 22 Live\Catch 22\Catch 22 Live\12 – Good Times.wav

Peak level 97.8 %
Track quality 99.8 %
Test CRC 097FE587
Copy CRC 097FE587
Copy OK

Track 13
Filename C:\Documents and Settings\Jut.MAINDELL\My Documents\Oink\Catch 22 Live\Catch 22\Catch 22 Live\13 – Dear Sergio.wav

Peak level 97.6 %
Track quality 99.4 %
Test CRC B66ADA3B
Copy CRC B66ADA3B
Copy OK

Track 14
Filename C:\Documents and Settings\Jut.MAINDELL\My Documents\Oink\Catch 22 Live\Catch 22\Catch 22 Live\14 – Intro,Point the Blame.wav

Peak level 97.6 %
Track quality 99.6 %
Test CRC 8655C5A8
Copy CRC 8655C5A8
Copy OK

Track 15
Filename C:\Documents and Settings\Jut.MAINDELL\My Documents\Oink\Catch 22 Live\Catch 22\Catch 22 Live\15 – Sincerely Yours.wav

Peak level 97.6 %
Track quality 99.3 %
Test CRC DB8617F3
Copy CRC DB8617F3
Copy OK

Track 16
Filename C:\Documents and Settings\Jut.MAINDELL\My Documents\Oink\Catch 22 Live\Catch 22\Catch 22 Live\16 – Dreams of Venus.wav

Peak level 97.7 %
Track quality 99.9 %
Test CRC C3E43123
Copy CRC C3E43123
Copy OK

Track 17
Filename C:\Documents and Settings\Jut.MAINDELL\My Documents\Oink\Catch 22 Live\Catch 22\Catch 22 Live\17 – What Goes Around Comes Around.wav

Peak level 97.6 %
Track quality 99.9 %
Test CRC 819881BA
Copy CRC 819881BA
Copy OK

Track 18
Filename C:\Documents and Settings\Jut.MAINDELL\My Documents\Oink\Catch 22 Live\Catch 22\Catch 22 Live\18 – Arm to Arm.wav

Peak level 97.7 %
Track quality 100.0 %
Test CRC EA402C87
Copy CRC EA402C87
Copy OK

Track 19
Filename C:\Documents and Settings\Jut.MAINDELL\My Documents\Oink\Catch 22 Live\Catch 22\Catch 22 Live\19 – Keasbey Nights.wav

Peak level 97.6 %
Track quality 100.0 %
Test CRC 958FF273
Copy CRC 958FF273
Copy OK

Track 20
Filename C:\Documents and Settings\Jut.MAINDELL\My Documents\Oink\Catch 22 Live\Catch 22\Catch 22 Live\20 – Chasing the Moon.wav

Peak level 97.6 %
Track quality 99.7 %
Test CRC F508E16B
Copy CRC F508E16B
Copy OK

Track 21
Filename C:\Documents and Settings\Jut.MAINDELL\My Documents\Oink\Catch 22 Live\Catch 22\Catch 22 Live\21 – 1234 1234.wav

Peak level 97.6 %
Track quality 99.1 %
Test CRC 94A69D20
Copy CRC 94A69D20
Copy OK

No errors occured

End of status report

REM GENRE Ska
REM DATE 2004
REM DISCID 310C8915
REM COMMENT “ExactAudioCopy v0.95b4”
PERFORMER “Catch 22”
TITLE “Catch 22 Live”
FILE “Catch 22\Catch 22 Live\01 – Welcome.wav” WAVE
TRACK 01 AUDIO
TITLE “Welcome”
PERFORMER “Catch 22”
INDEX 01 00:00:00
FILE “Catch 22\Catch 22 Live\02 – Lamont’s Lament.wav” WAVE
TRACK 02 AUDIO
TITLE “Lamont’s Lament”
PERFORMER “Catch 22”
INDEX 01 00:00:00
FILE “Catch 22\Catch 22 Live\03 – Rocky.wav” WAVE
TRACK 03 AUDIO
TITLE “Rocky”
PERFORMER “Catch 22”
INDEX 01 00:00:00
FILE “Catch 22\Catch 22 Live\04 – It Takes Some Time.wav” WAVE
TRACK 04 AUDIO
TITLE “It Takes Some Time”
PERFORMER “Catch 22”
INDEX 01 00:00:00
FILE “Catch 22\Catch 22 Live\05 – On and On and On.wav” WAVE
TRACK 05 AUDIO
TITLE “On and On and On”
PERFORMER “Catch 22”
INDEX 01 00:00:00
FILE “Catch 22\Catch 22 Live\06 – Motown Cinderella.wav” WAVE
TRACK 06 AUDIO
TITLE “Motown Cinderella”
PERFORMER “Catch 22”
INDEX 01 00:00:00
FILE “Catch 22\Catch 22 Live\07 – Riding the Fourth Wave.wav” WAVE
TRACK 07 AUDIO
TITLE “Riding the Fourth Wave”
PERFORMER “Catch 22”
INDEX 01 00:00:00
FILE “Catch 22\Catch 22 Live\08 – Sounds Good, But I Don’t Know.wav” WAVE
TRACK 08 AUDIO
TITLE “Sounds Good, But I Don’t Know”
PERFORMER “Catch 22”
INDEX 01 00:00:00
FILE “Catch 22\Catch 22 Live\09 – Sick and Sad.wav” WAVE
TRACK 09 AUDIO
TITLE “Sick and Sad”
PERFORMER “Catch 22”
INDEX 01 00:00:00
FILE “Catch 22\Catch 22 Live\10 – Chin Up.wav” WAVE
TRACK 10 AUDIO
TITLE “Chin Up”
PERFORMER “Catch 22”
INDEX 01 00:00:00
FILE “Catch 22\Catch 22 Live\11 – 9mm and A 3 Piece Suit.wav” WAVE
TRACK 11 AUDIO
TITLE “9mm and A 3 Piece Suit”
PERFORMER “Catch 22”
INDEX 01 00:00:00
FILE “Catch 22\Catch 22 Live\12 – Good Times.wav” WAVE
TRACK 12 AUDIO
TITLE “Good Times”
PERFORMER “Catch 22”
INDEX 01 00:00:00
FILE “Catch 22\Catch 22 Live\13 – Dear Sergio.wav” WAVE
TRACK 13 AUDIO
TITLE “Dear Sergio”
PERFORMER “Catch 22”
INDEX 01 00:00:00
FILE “Catch 22\Catch 22 Live\14 – Intro,Point the Blame.wav” WAVE
TRACK 14 AUDIO
TITLE “Intro/Point the Blame”
PERFORMER “Catch 22”
INDEX 01 00:00:00
FILE “Catch 22\Catch 22 Live\15 – Sincerely Yours.wav” WAVE
TRACK 15 AUDIO
TITLE “Sincerely Yours”
PERFORMER “Catch 22”
INDEX 01 00:00:00
FILE “Catch 22\Catch 22 Live\16 – Dreams of Venus.wav” WAVE
TRACK 16 AUDIO
TITLE “Dreams of Venus”
PERFORMER “Catch 22”
INDEX 01 00:00:00
FILE “Catch 22\Catch 22 Live\17 – What Goes Around Comes Around.wav” WAVE
TRACK 17 AUDIO
TITLE “What Goes Around Comes Around”
PERFORMER “Catch 22”
INDEX 01 00:00:00
FILE “Catch 22\Catch 22 Live\18 – Arm to Arm.wav” WAVE
TRACK 18 AUDIO
TITLE “Arm to Arm”
PERFORMER “Catch 22”
INDEX 01 00:00:00
FILE “Catch 22\Catch 22 Live\19 – Keasbey Nights.wav” WAVE
TRACK 19 AUDIO
TITLE “Keasbey Nights”
PERFORMER “Catch 22”
INDEX 01 00:00:00
FILE “Catch 22\Catch 22 Live\20 – Chasing the Moon.wav” WAVE
TRACK 20 AUDIO
TITLE “Chasing the Moon”
PERFORMER “Catch 22”
INDEX 01 00:00:00
FILE “Catch 22\Catch 22 Live\21 – 1234 1234.wav” WAVE
TRACK 21 AUDIO
TITLE “1234 1234”
PERFORMER “Catch 22”
INDEX 01 00:00:00


Leave a Reply

Your email address will not be published. Required fields are marked *

This site uses Akismet to reduce spam. Learn how your comment data is processed.