Catch 22 – Keasbey Nights




Artist: Catch 22
Year: 1998
Genre: Punk
Notes: Discogs
Add. Notes:
Cover incl.: Yes
Encoder: FLAC
Bitrate: ~900 kBit/s (44.1 kHz/16 Bit/s)
Log & Cue incl.: Yes
Size: 320,58 MB
Password: “slam” (without ” “)


All Downloads/Hosters are compatible

Download 1
Turbobit.net
Rapidgator.net
KatFile.com
UsersDrive.com
UploadRar.com
Download 2
Turbobit.net
Rapidgator.net
KatFile.com
UsersDrive.com
UploadRar.com
Download 3
Turbobit.net
Rapidgator.net
KatFile.com
UsersDrive.com
UploadRar.com

Tracklist:

1. Dear Sergio 
2. Sick And Sad
3. Keasbey Nights 
4. Day In Day Out
5. Walking Away
6. Giving Up Giving In
7. On & On & On
8. Riding The Fourth Wave 
9. The One Goes Out To... 
10. Supernothing
11. 9 Mm And A Three Piece Suit
12. Kristina She Don't Know I Exis 
13. As The Footsteps Die Out Forever
14. 12341234

EAC-Log, CUE-Sheed & NFO:

Click to open spoiler
EAC extraction logfile from 25. May 2006, 18:19 for CD
Catch 22 / Keasbey Nights

Used drive : SAMSUNG CD-R/RW SW-248F Adapter: 1 ID: 1
Read mode : Secure with NO C2, accurate stream, disable cache
Read offset correction : 97
Overread into Lead-In and Lead-Out : No

Used output format : C:\Program Files\Exact Audio Copy\flac.exe (User Defined Encoder)
32 kBit/s
Additional command line options : -V -8 -T “artist=%a” -T “title=%t” -T “album=%g” -T “date=%y” -T “tracknumber=%n” -T “genre=%m” %s

Other options :
Fill up missing offset samples with silence : Yes
Delete leading and trailing silent blocks : No
Installed external ASPI interface

Track 1
Filename F:\My Flac Uploads\Catch 22 – Keasbey Nights\01 – Catch 22 – Dear Sergio.wav

Pre-gap length 0:00:02.00

Peak level 96.6 %
Track quality 100.0 %
Test CRC B90AA161
Copy CRC B90AA161
Copy OK

Track 2
Filename F:\My Flac Uploads\Catch 22 – Keasbey Nights\02 – Catch 22 – Sick and Sad.wav

Peak level 96.6 %
Track quality 99.9 %
Test CRC 1DCAFD81
Copy CRC 1DCAFD81
Copy OK

Track 3
Filename F:\My Flac Uploads\Catch 22 – Keasbey Nights\03 – Catch 22 – Keasbey Nights.wav

Peak level 96.6 %
Track quality 100.0 %
Test CRC AB0AADA8
Copy CRC AB0AADA8
Copy OK

Track 4
Filename F:\My Flac Uploads\Catch 22 – Keasbey Nights\04 – Catch 22 – Day in Day out.wav

Peak level 96.6 %
Track quality 100.0 %
Test CRC 2F348ED1
Copy CRC 2F348ED1
Copy OK

Track 5
Filename F:\My Flac Uploads\Catch 22 – Keasbey Nights\05 – Catch 22 – Walking Away.wav

Peak level 96.6 %
Track quality 100.0 %
Test CRC 6502110E
Copy CRC 6502110E
Copy OK

Track 6
Filename F:\My Flac Uploads\Catch 22 – Keasbey Nights\06 – Catch 22 – Giving up Giving in.wav

Peak level 96.6 %
Track quality 100.0 %
Test CRC 43029F6F
Copy CRC 43029F6F
Copy OK

Track 7
Filename F:\My Flac Uploads\Catch 22 – Keasbey Nights\07 – Catch 22 – On & On & On.wav

Peak level 96.6 %
Track quality 100.0 %
Test CRC 71CBCBFB
Copy CRC 71CBCBFB
Copy OK

Track 8
Filename F:\My Flac Uploads\Catch 22 – Keasbey Nights\08 – Catch 22 – Riding the Fourth Wave.wav

Peak level 96.6 %
Track quality 100.0 %
Test CRC 8406296C
Copy CRC 8406296C
Copy OK

Track 9
Filename F:\My Flac Uploads\Catch 22 – Keasbey Nights\09 – Catch 22 – This One Goes Out to….wav

Peak level 96.6 %
Track quality 100.0 %
Test CRC F8D8AA94
Copy CRC F8D8AA94
Copy OK

Track 10
Filename F:\My Flac Uploads\Catch 22 – Keasbey Nights\10 – Catch 22 – Supernothing.wav

Peak level 96.6 %
Track quality 100.0 %
Test CRC 3335386E
Copy CRC 3335386E
Copy OK

Track 11
Filename F:\My Flac Uploads\Catch 22 – Keasbey Nights\11 – Catch 22 – 9mm And a Three Piece Suit.wav

Peak level 96.6 %
Track quality 100.0 %
Test CRC 7ACA17A3
Copy CRC 7ACA17A3
Copy OK

Track 12
Filename F:\My Flac Uploads\Catch 22 – Keasbey Nights\12 – Catch 22 – Kristina She Don’t Know I Exist.wav

Peak level 96.6 %
Track quality 100.0 %
Test CRC 28018C80
Copy CRC 28018C80
Copy OK

Track 13
Filename F:\My Flac Uploads\Catch 22 – Keasbey Nights\13 – Catch 22 – As the Footsteps Die Out Forever.wav

Peak level 96.6 %
Track quality 100.0 %
Test CRC FEE842DE
Copy CRC FEE842DE
Copy OK

Track 14
Filename F:\My Flac Uploads\Catch 22 – Keasbey Nights\14 – Catch 22 – 12341234.wav

Peak level 96.6 %
Track quality 100.0 %
Test CRC B95AC8C6
Copy CRC B95AC8C6
Copy OK

No errors occured

End of status report

REM GENRE Rock
REM DATE 1998
REM DISCID C90AD30E
REM COMMENT “ExactAudioCopy v0.95b3”
PERFORMER “Catch 22”
TITLE “Keasbey Nights”
FILE “01 – Catch 22 – Dear Sergio.wav” WAVE
TRACK 01 AUDIO
TITLE “Dear Sergio”
PERFORMER “Catch 22”
FLAGS DCP
INDEX 01 00:00:00
FILE “02 – Catch 22 – Sick and Sad.wav” WAVE
TRACK 02 AUDIO
TITLE “Sick and Sad”
PERFORMER “Catch 22”
FLAGS DCP
INDEX 01 00:00:00
FILE “03 – Catch 22 – Keasbey Nights.wav” WAVE
TRACK 03 AUDIO
TITLE “Keasbey Nights”
PERFORMER “Catch 22”
FLAGS DCP
INDEX 01 00:00:00
FILE “04 – Catch 22 – Day in Day out.wav” WAVE
TRACK 04 AUDIO
TITLE “Day in Day out”
PERFORMER “Catch 22”
FLAGS DCP
INDEX 01 00:00:00
FILE “05 – Catch 22 – Walking Away.wav” WAVE
TRACK 05 AUDIO
TITLE “Walking Away”
PERFORMER “Catch 22”
FLAGS DCP
INDEX 01 00:00:00
FILE “06 – Catch 22 – Giving up Giving in.wav” WAVE
TRACK 06 AUDIO
TITLE “Giving up Giving in”
PERFORMER “Catch 22”
FLAGS DCP
INDEX 01 00:00:00
FILE “07 – Catch 22 – On & On & On.wav” WAVE
TRACK 07 AUDIO
TITLE “On & On & On”
PERFORMER “Catch 22”
FLAGS DCP
INDEX 01 00:00:00
FILE “08 – Catch 22 – Riding the Fourth Wave.wav” WAVE
TRACK 08 AUDIO
TITLE “Riding the Fourth Wave”
PERFORMER “Catch 22”
FLAGS DCP
INDEX 01 00:00:00
FILE “09 – Catch 22 – This One Goes Out to….wav” WAVE
TRACK 09 AUDIO
TITLE “This One Goes Out to…”
PERFORMER “Catch 22”
FLAGS DCP
INDEX 01 00:00:00
FILE “10 – Catch 22 – Supernothing.wav” WAVE
TRACK 10 AUDIO
TITLE “Supernothing”
PERFORMER “Catch 22”
FLAGS DCP
INDEX 01 00:00:00
FILE “11 – Catch 22 – 9mm And a Three Piece Suit.wav” WAVE
TRACK 11 AUDIO
TITLE “9mm And a Three Piece Suit”
PERFORMER “Catch 22”
FLAGS DCP
INDEX 01 00:00:00
FILE “12 – Catch 22 – Kristina She Don’t Know I Exist.wav” WAVE
TRACK 12 AUDIO
TITLE “Kristina She Don’t Know I Exist”
PERFORMER “Catch 22”
FLAGS DCP
INDEX 01 00:00:00
FILE “13 – Catch 22 – As the Footsteps Die Out Forever.wav” WAVE
TRACK 13 AUDIO
TITLE “As the Footsteps Die Out Forever”
PERFORMER “Catch 22”
FLAGS DCP
INDEX 01 00:00:00
FILE “14 – Catch 22 – 12341234.wav” WAVE
TRACK 14 AUDIO
TITLE “12341234”
PERFORMER “Catch 22”
FLAGS DCP
INDEX 01 00:00:00


Leave a Reply

Your email address will not be published. Required fields are marked *

This site uses Akismet to reduce spam. Learn how your comment data is processed.