Catch 22 – Dinosaur Sounds




Artist: Catch 22
Year: 2003
Genre: Ska
Notes: Discogs
Add. Notes:
Cover incl.: Yes
Encoder: FLAC
Bitrate: ~900 kBit/s (44.1 kHz/16 Bit/s)
Log & Cue incl.: Yes
Size: 234,62 MB
Password: “slam” (without ” “)


All Downloads/Hosters are compatible

Download 1
Turbobit.net
Rapidgator.net
UploadEver.com
KatFile.com
UsersDrive.com
Download 2
Turbobit.net
Rapidgator.net
UploadEver.com
KatFile.com
UsersDrive.com
Download 3
Turbobit.net
Rapidgator.net
UploadEver.com
KatFile.com
UsersDrive.com

Tracklist:

1 - Rocky - 3:23
2 - Beguile The Time - 2:47
3 - Wine Stained Lips - 2:46
4 - Motown Cinderella - 2:32
5 - Chin Up - 3:20
6 - Dreams Of Venus - 3:07
7 - Dripping Faucet - 3:11
8 - Good Times - 3:06
9 - Untitled - 0:41
10 - So Cold - 2:57
11 - Regression - 1:53
12 - Chasing The Moon - 1:33
13 - Lamont’s Lament - 1:50

EAC-Log, CUE-Sheed & NFO:

Click to open spoiler
Exact Audio Copy V0.99 prebeta 3 from 28. July 2007

EAC extraction logfile from 24. January 2008, 1:37

Catch 22 / Dinosaur Sounds

Used drive : _NEC DVD+RW ND-2100AD Adapter: 0 ID: 1

Read mode : Secure
Utilize accurate stream : Yes
Defeat audio cache : Yes
Make use of C2 pointers : No

Read offset correction : 48
Overread into Lead-In and Lead-Out : No
Fill up missing offset samples with silence : Yes
Delete leading and trailing silent blocks : No
Null samples used in CRC calculations : Yes
Used interface : Installed external ASPI interface
Gap handling : Appended to previous track

Used output format : User Defined Encoder
Selected bitrate : 128 kBit/s
Quality : High
Add ID3 tag : No
Command line compressor : F:\Program Files\Exact Audio Copy\Flac\flac.exe
Additional command line options : -V -8 -T \”artist=%a\” -T \”title=%t\” -T \”album=%g\” -T \”date=%y\” -T \”tracknumber=%n\” -T \”genre=%m\” %s

TOC of the extracted CD

Track | Start | Length | Start sector | End sector
———————————————————
1 | 0:00.00 | 3:23.29 | 0 | 15253
2 | 3:23.29 | 2:47.00 | 15254 | 27778
3 | 6:10.29 | 2:46.22 | 27779 | 40250
4 | 8:56.51 | 2:32.25 | 40251 | 51675
5 | 11:29.01 | 3:20.61 | 51676 | 66736
6 | 14:49.62 | 3:07.56 | 66737 | 80817
7 | 17:57.43 | 3:11.02 | 80818 | 95144
8 | 21:08.45 | 3:06.26 | 95145 | 109120
9 | 24:14.71 | 0:41.01 | 109121 | 112196
10 | 24:55.72 | 2:57.52 | 112197 | 125523
11 | 27:53.49 | 1:53.38 | 125524 | 134036
12 | 29:47.12 | 1:33.45 | 134037 | 141056
13 | 31:20.57 | 1:50.27 | 141057 | 149333

Track 1

Filename F:\What.cd\uploaded\Catch 22\Dinosaur Sounds\01 – Rocky.wav

Pre-gap length 0:00:02.00

Peak level 99.1 %
Track quality 100.0 %
Test CRC 8B2D09A2
Copy CRC 8B2D09A2
Copy OK

Track 2

Filename F:\What.cd\uploaded\Catch 22\Dinosaur Sounds\02 – Beguile The Time.wav

Peak level 100.0 %
Track quality 100.0 %
Test CRC BFDC0791
Copy CRC BFDC0791
Copy OK

Track 3

Filename F:\What.cd\uploaded\Catch 22\Dinosaur Sounds\03 – Wine Stained Lips.wav

Peak level 99.1 %
Track quality 100.0 %
Test CRC 53AF8D56
Copy CRC 53AF8D56
Copy OK

Track 4

Filename F:\What.cd\uploaded\Catch 22\Dinosaur Sounds\04 – Motown Cinderella.wav

Peak level 99.1 %
Track quality 100.0 %
Test CRC 583FCB1C
Copy CRC 583FCB1C
Copy OK

Track 5

Filename F:\What.cd\uploaded\Catch 22\Dinosaur Sounds\05 – Chin Up.wav

Peak level 99.1 %
Track quality 100.0 %
Test CRC A4035CB6
Copy CRC A4035CB6
Copy OK

Track 6

Filename F:\What.cd\uploaded\Catch 22\Dinosaur Sounds\06 – Dreams Of Venus.wav

Peak level 99.1 %
Track quality 100.0 %
Test CRC E4304E6C
Copy CRC E4304E6C
Copy OK

Track 7

Filename F:\What.cd\uploaded\Catch 22\Dinosaur Sounds\07 – Dripping Faucet.wav

Peak level 99.1 %
Track quality 100.0 %
Test CRC 72A3BF4A
Copy CRC 72A3BF4A
Copy OK

Track 8

Filename F:\What.cd\uploaded\Catch 22\Dinosaur Sounds\08 – Good Times.wav

Peak level 99.1 %
Track quality 100.0 %
Test CRC 85FDD2CB
Copy CRC 85FDD2CB
Copy OK

Track 9

Filename F:\What.cd\uploaded\Catch 22\Dinosaur Sounds\09 – So Cold.wav

Peak level 83.1 %
Track quality 100.0 %
Test CRC 3BE73CEF
Copy CRC 3BE73CEF
Copy OK

Track 10

Filename F:\What.cd\uploaded\Catch 22\Dinosaur Sounds\10 – Regression.wav

Peak level 99.1 %
Track quality 100.0 %
Test CRC 81B637AA
Copy CRC 81B637AA
Copy OK

Track 11

Filename F:\What.cd\uploaded\Catch 22\Dinosaur Sounds\11 – Chasing the Moon.wav

Peak level 99.1 %
Track quality 100.0 %
Test CRC 31A840ED
Copy CRC 31A840ED
Copy OK

Track 12

Filename F:\What.cd\uploaded\Catch 22\Dinosaur Sounds\12 – Lamont’s Lament.wav

Peak level 99.1 %
Track quality 100.0 %
Test CRC 27A64336
Copy CRC 27A64336
Copy OK

Track 13

Filename F:\What.cd\uploaded\Catch 22\Dinosaur Sounds\13 – Untitled.wav

Peak level 99.1 %
Track quality 100.0 %
Test CRC 14A36B9E
Copy CRC 14A36B9E
Copy OK

No errors occurred

End of status report

REM GENRE Ska
REM DATE 2003
REM DISCID C607C70D
REM COMMENT “ExactAudioCopy v0.99pb3”
PERFORMER “Catch 22”
TITLE “Dinosaur Sounds”
FILE “Catch 22\Dinosaur Sounds\01 – Rocky.wav” WAVE
TRACK 01 AUDIO
TITLE “Rocky”
PERFORMER “Catch 22”
INDEX 01 00:00:00
FILE “Catch 22\Dinosaur Sounds\02 – Beguile The Time.wav” WAVE
TRACK 02 AUDIO
TITLE “Beguile The Time”
PERFORMER “Catch 22”
INDEX 01 00:00:00
FILE “Catch 22\Dinosaur Sounds\03 – Wine Stained Lips.wav” WAVE
TRACK 03 AUDIO
TITLE “Wine Stained Lips”
PERFORMER “Catch 22”
INDEX 01 00:00:00
FILE “Catch 22\Dinosaur Sounds\04 – Motown Cinderella.wav” WAVE
TRACK 04 AUDIO
TITLE “Motown Cinderella”
PERFORMER “Catch 22”
INDEX 01 00:00:00
FILE “Catch 22\Dinosaur Sounds\05 – Chin Up.wav” WAVE
TRACK 05 AUDIO
TITLE “Chin Up”
PERFORMER “Catch 22”
INDEX 01 00:00:00
FILE “Catch 22\Dinosaur Sounds\06 – Dreams Of Venus.wav” WAVE
TRACK 06 AUDIO
TITLE “Dreams Of Venus”
PERFORMER “Catch 22”
INDEX 01 00:00:00
FILE “Catch 22\Dinosaur Sounds\07 – Dripping Faucet.wav” WAVE
TRACK 07 AUDIO
TITLE “Dripping Faucet”
PERFORMER “Catch 22”
INDEX 01 00:00:00
FILE “Catch 22\Dinosaur Sounds\08 – Good Times.wav” WAVE
TRACK 08 AUDIO
TITLE “Good Times”
PERFORMER “Catch 22”
INDEX 01 00:00:00
FILE “Catch 22\Dinosaur Sounds\09 – So Cold.wav” WAVE
TRACK 09 AUDIO
TITLE “So Cold”
PERFORMER “Catch 22”
INDEX 01 00:00:00
FILE “Catch 22\Dinosaur Sounds\10 – Regression.wav” WAVE
TRACK 10 AUDIO
TITLE “Regression”
PERFORMER “Catch 22”
INDEX 01 00:00:00
FILE “Catch 22\Dinosaur Sounds\11 – Chasing the Moon.wav” WAVE
TRACK 11 AUDIO
TITLE “Chasing the Moon”
PERFORMER “Catch 22”
INDEX 01 00:00:00
FILE “Catch 22\Dinosaur Sounds\12 – Lamont’s Lament.wav” WAVE
TRACK 12 AUDIO
TITLE “Lamont’s Lament”
PERFORMER “Catch 22”
INDEX 01 00:00:00
FILE “Catch 22\Dinosaur Sounds\13 – Untitled.wav” WAVE
TRACK 13 AUDIO
TITLE “Untitled”
PERFORMER “Catch 22”
INDEX 01 00:00:00


Leave a Reply

Your email address will not be published. Required fields are marked *

This site uses Akismet to reduce spam. Learn how your comment data is processed.