Catch 22 – Alone in a Crowd




Artist: Catch 22
Year: 2000
Genre: Ska
Notes: Discogs
Add. Notes:
Cover incl.: Yes
Encoder: FLAC
Bitrate: ~900 kBit/s (44.1 kHz/16 Bit/s)
Log & Cue incl.: Yes
Size: 249,52 MB
Password: “slam” (without ” “)


All Downloads/Hosters are compatible

Download 1
Turbobit.net
Rapidgator.net
KatFile.com
UploadRar.com
Download 2
Turbobit.net
Rapidgator.net
KatFile.com
UploadRar.com
Download 3
Turbobit.net
Rapidgator.net
KatFile.com
UploadRar.com

Tracklist:

1 - Intro - 0:18
2 - Point The Blame - 2:17
3 - Sounds Good, But I Don't Know - 1:56
4 - It Takes Some Time - 3:05
5 - What Goes Around Comes Around - 2:39
6 - Arm To Arm - 2:07
7 - Guilty Pleasures - 2:22
8 - Bloomfield Ave. - 3:09
9 - Hard To Impress - 2:05
10 - San Francisco Payphone - 2:49
11 - Wreck Of Sloop John B. - 2:29
12 - Neverending Story - 2:35
13 - Thinking About Things - 1:58
14 - Alone In A Crowd - 2:27
15 - [Blank Audio] - 0:22
16 - [Blank Audio] - 0:22
17 - [Blank Audio] - 0:22
18 - [Blank Audio] - 0:22
19 - [Blank Audio] - 0:22
20 - [Blank Audio] - 0:22
21 - [Blank Audio] - 0:22
22 - [Hidden Track] - 1:32

EAC-Log, CUE-Sheed & NFO:

Click to open spoiler
X Lossless Decoder version 20090320 (105.1)

XLD extraction logfile from 2009-05-12 23:50:43 -0400

Catch 22 / Alone in a Crowd

Used drive : PIONEER DVD-RW DVR-112D (revision BC14)

Use cdparanoia mode : YES (CDParanoia III 10.2 engine)
Disable audio cache : OK for the drive with cache less than 2750KB
Make use of C2 pointers : NO
Read offset correction : 48
Max retry count : 100

TOC of the extracted CD
Track | Start | Length | Start sector | End sector
———————————————————
1 | 00:00:00 | 00:18:67 | 0 | 1416
2 | 00:18:67 | 02:17:50 | 1417 | 11741
3 | 02:36:42 | 01:56:34 | 11742 | 20475
4 | 04:33:01 | 03:05:32 | 20476 | 34382
5 | 07:38:33 | 02:39:41 | 34383 | 46348
6 | 10:17:74 | 02:07:45 | 46349 | 55918
7 | 12:25:44 | 02:22:53 | 55919 | 66621
8 | 14:48:22 | 03:09:10 | 66622 | 80806
9 | 17:57:32 | 02:05:55 | 80807 | 90236
10 | 20:03:12 | 02:49:48 | 90237 | 102959
11 | 22:52:60 | 02:29:00 | 102960 | 114134
12 | 25:21:60 | 02:35:07 | 114135 | 125766
13 | 27:56:67 | 01:58:72 | 125767 | 134688
14 | 29:55:64 | 02:27:35 | 134689 | 145748
15 | 32:23:24 | 00:55:63 | 145749 | 149936
16 | 33:19:12 | 00:22:26 | 149937 | 151612
17 | 33:41:38 | 00:22:25 | 151613 | 153287
18 | 34:03:63 | 00:22:25 | 153288 | 154962
19 | 34:26:13 | 00:22:26 | 154963 | 156638
20 | 34:48:39 | 00:22:01 | 156639 | 158289
21 | 35:10:40 | 00:22:26 | 158290 | 159965
22 | 35:32:66 | 01:32:68 | 159966 | 166933

List of alternate offset correction values
# | Absolute | Relative | Confidence
——————————————
1 | 646 | 598 | 2

Track 01
Filename : 01 Catch 22 – Intro.flac

CRC32 hash (test run) : AB868F56
CRC32 hash : AB868F56
CRC32 hash (skip zero) : B33B6731
AccurateRip signature : 3990FAC7
->Rip may not be accurate.
Statistics
Read error : 0
Skipped (treated as error) : 0
Edge jitter error (maybe fixed) : 0
Atom jitter error (maybe fixed) : 0
Drift error (maybe fixed) : 0
Dropped bytes error (maybe fixed) : 0
Duplicated bytes error (maybe fixed) : 0
Inconsistency in error sectors : 0

Track 02
Filename : 02 Catch 22 – Point The Blame.flac

CRC32 hash (test run) : 44FC8F97
CRC32 hash : 44FC8F97
CRC32 hash (skip zero) : F0629B50
AccurateRip signature : 3E0CACE9
->Accurately ripped! (confidence 2)
(matched with the different offset correction value;
calculated using an additional offset of 598;
the signature after correction is: 9D52E55B)
Statistics
Read error : 0
Skipped (treated as error) : 0
Edge jitter error (maybe fixed) : 0
Atom jitter error (maybe fixed) : 0
Drift error (maybe fixed) : 0
Dropped bytes error (maybe fixed) : 0
Duplicated bytes error (maybe fixed) : 0
Inconsistency in error sectors : 0

Track 03
Filename : 03 Catch 22 – Sounds Good, But I Don’t Know.flac

CRC32 hash (test run) : B62827BC
CRC32 hash : B62827BC
CRC32 hash (skip zero) : 8B63F68E
AccurateRip signature : 3E2F8A07
->Accurately ripped! (confidence 2)
(matched with the different offset correction value;
calculated using an additional offset of 598;
the signature after correction is: 008A8434)
Statistics
Read error : 0
Skipped (treated as error) : 0
Edge jitter error (maybe fixed) : 0
Atom jitter error (maybe fixed) : 0
Drift error (maybe fixed) : 0
Dropped bytes error (maybe fixed) : 0
Duplicated bytes error (maybe fixed) : 0
Inconsistency in error sectors : 0

Track 04
Filename : 04 Catch 22 – It Takes Some Time.flac

CRC32 hash (test run) : C955A566
CRC32 hash : C955A566
CRC32 hash (skip zero) : EF5ECC7E
AccurateRip signature : 99453538
->Accurately ripped! (confidence 2)
(matched with the different offset correction value;
calculated using an additional offset of 598;
the signature after correction is: A5A0F2CA)
Statistics
Read error : 0
Skipped (treated as error) : 0
Edge jitter error (maybe fixed) : 0
Atom jitter error (maybe fixed) : 0
Drift error (maybe fixed) : 0
Dropped bytes error (maybe fixed) : 0
Duplicated bytes error (maybe fixed) : 0
Inconsistency in error sectors : 0

Track 05
Filename : 05 Catch 22 – What Goes Around Comes Around.flac

CRC32 hash (test run) : DC95E22B
CRC32 hash : DC95E22B
CRC32 hash (skip zero) : 9186E2A4
AccurateRip signature : 8C619B9A
->Accurately ripped! (confidence 2)
(matched with the different offset correction value;
calculated using an additional offset of 598;
the signature after correction is: FB5017E4)
Statistics
Read error : 0
Skipped (treated as error) : 0
Edge jitter error (maybe fixed) : 0
Atom jitter error (maybe fixed) : 0
Drift error (maybe fixed) : 0
Dropped bytes error (maybe fixed) : 0
Duplicated bytes error (maybe fixed) : 0
Inconsistency in error sectors : 0

Track 06
Filename : 06 Catch 22 – Arm To Arm.flac

CRC32 hash (test run) : C873770F
CRC32 hash : C873770F
CRC32 hash (skip zero) : 7E010599
AccurateRip signature : AE0D01B8
->Accurately ripped! (confidence 2)
(matched with the different offset correction value;
calculated using an additional offset of 598;
the signature after correction is: D383B429)
Statistics
Read error : 0
Skipped (treated as error) : 0
Edge jitter error (maybe fixed) : 0
Atom jitter error (maybe fixed) : 0
Drift error (maybe fixed) : 0
Dropped bytes error (maybe fixed) : 0
Duplicated bytes error (maybe fixed) : 0
Inconsistency in error sectors : 0

Track 07
Filename : 07 Catch 22 – Guilty Pleasures.flac

CRC32 hash (test run) : 79547E65
CRC32 hash : 79547E65
CRC32 hash (skip zero) : 6691E31F
AccurateRip signature : FA3A5665
->Accurately ripped! (confidence 2)
(matched with the different offset correction value;
calculated using an additional offset of 598;
the signature after correction is: 4B70F3BD)
Statistics
Read error : 0
Skipped (treated as error) : 0
Edge jitter error (maybe fixed) : 0
Atom jitter error (maybe fixed) : 0
Drift error (maybe fixed) : 0
Dropped bytes error (maybe fixed) : 0
Duplicated bytes error (maybe fixed) : 0
Inconsistency in error sectors : 0

Track 08
Filename : 08 Catch 22 – Bloomfield Ave..flac

CRC32 hash (test run) : 3B1D8939
CRC32 hash : 3B1D8939
CRC32 hash (skip zero) : 5D704EB5
AccurateRip signature : 6255577B
->Accurately ripped! (confidence 2)
(matched with the different offset correction value;
calculated using an additional offset of 598;
the signature after correction is: C3420696)
Statistics
Read error : 0
Skipped (treated as error) : 0
Edge jitter error (maybe fixed) : 0
Atom jitter error (maybe fixed) : 0
Drift error (maybe fixed) : 0
Dropped bytes error (maybe fixed) : 0
Duplicated bytes error (maybe fixed) : 0
Inconsistency in error sectors : 0

Track 09
Filename : 09 Catch 22 – Hard to Impress.flac

CRC32 hash (test run) : 1E71DCBA
CRC32 hash : 1E71DCBA
CRC32 hash (skip zero) : 3271FC5E
AccurateRip signature : E20CA3CD
->Accurately ripped! (confidence 2)
(matched with the different offset correction value;
calculated using an additional offset of 598;
the signature after correction is: 7A2A2287)
Statistics
Read error : 0
Skipped (treated as error) : 0
Edge jitter error (maybe fixed) : 0
Atom jitter error (maybe fixed) : 0
Drift error (maybe fixed) : 0
Dropped bytes error (maybe fixed) : 0
Duplicated bytes error (maybe fixed) : 0
Inconsistency in error sectors : 0

Track 10
Filename : 10 Catch 22 – San Francisco Payphone.flac

CRC32 hash (test run) : BC6FBD9D
CRC32 hash : BC6FBD9D
CRC32 hash (skip zero) : 550D409B
AccurateRip signature : AA00941F
->Accurately ripped! (confidence 2)
(matched with the different offset correction value;
calculated using an additional offset of 598;
the signature after correction is: 5EADE07E)
Statistics
Read error : 0
Skipped (treated as error) : 0
Edge jitter error (maybe fixed) : 0
Atom jitter error (maybe fixed) : 0
Drift error (maybe fixed) : 0
Dropped bytes error (maybe fixed) : 0
Duplicated bytes error (maybe fixed) : 0
Inconsistency in error sectors : 0

Track 11
Filename : 11 Catch 22 – Wreck Of The Sloop John B.flac

CRC32 hash (test run) : B8A1BD20
CRC32 hash : B8A1BD20
CRC32 hash (skip zero) : D3C6AAE8
AccurateRip signature : 5864DAD6
->Accurately ripped! (confidence 2)
(matched with the different offset correction value;
calculated using an additional offset of 598;
the signature after correction is: 85C535BF)
Statistics
Read error : 0
Skipped (treated as error) : 0
Edge jitter error (maybe fixed) : 0
Atom jitter error (maybe fixed) : 0
Drift error (maybe fixed) : 0
Dropped bytes error (maybe fixed) : 0
Duplicated bytes error (maybe fixed) : 0
Inconsistency in error sectors : 0

Track 12
Filename : 12 Catch 22 – Neverending Story.flac

CRC32 hash (test run) : 560EC3FD
CRC32 hash : 560EC3FD
CRC32 hash (skip zero) : A48FD4A7
AccurateRip signature : 4B19BDDD
->Accurately ripped! (confidence 2)
(matched with the different offset correction value;
calculated using an additional offset of 598;
the signature after correction is: 5E45F6DC)
Statistics
Read error : 0
Skipped (treated as error) : 0
Edge jitter error (maybe fixed) : 0
Atom jitter error (maybe fixed) : 0
Drift error (maybe fixed) : 0
Dropped bytes error (maybe fixed) : 0
Duplicated bytes error (maybe fixed) : 0
Inconsistency in error sectors : 0

Track 13
Filename : 13 Catch 22 – Thinking About Things.flac

CRC32 hash (test run) : 8A7C1EF3
CRC32 hash : 8A7C1EF3
CRC32 hash (skip zero) : 5A261A38
AccurateRip signature : 7B3FEEC2
->Accurately ripped! (confidence 2)
(matched with the different offset correction value;
calculated using an additional offset of 598;
the signature after correction is: 23298398)
Statistics
Read error : 0
Skipped (treated as error) : 0
Edge jitter error (maybe fixed) : 0
Atom jitter error (maybe fixed) : 0
Drift error (maybe fixed) : 0
Dropped bytes error (maybe fixed) : 0
Duplicated bytes error (maybe fixed) : 0
Inconsistency in error sectors : 0

Track 14
Filename : 14 Catch 22 – Alone In A Crowd.flac

CRC32 hash (test run) : 2538AD0B
CRC32 hash : 2538AD0B
CRC32 hash (skip zero) : 900A0001
AccurateRip signature : BFBB301C
->Accurately ripped! (confidence 2)
(matched with the different offset correction value;
calculated using an additional offset of 598;
the signature after correction is: 7E5F2833)
Statistics
Read error : 0
Skipped (treated as error) : 0
Edge jitter error (maybe fixed) : 0
Atom jitter error (maybe fixed) : 0
Drift error (maybe fixed) : 0
Dropped bytes error (maybe fixed) : 0
Duplicated bytes error (maybe fixed) : 0
Inconsistency in error sectors : 0

Track 15
Filename : 15 Catch 22 – Untitled.flac

CRC32 hash (test run) : C438ADBA
CRC32 hash : C438ADBA
CRC32 hash (skip zero) : 7AE32717
AccurateRip signature : FDC73078
->Accurately ripped! (confidence 2)
(matched with the different offset correction value;
calculated using an additional offset of 598;
the signature after correction is: F3BABC58)
Statistics
Read error : 0
Skipped (treated as error) : 0
Edge jitter error (maybe fixed) : 0
Atom jitter error (maybe fixed) : 0
Drift error (maybe fixed) : 0
Dropped bytes error (maybe fixed) : 0
Duplicated bytes error (maybe fixed) : 0
Inconsistency in error sectors : 0

Track 16
Filename : 16 Catch 22 – Untitled.flac

CRC32 hash (test run) : 56251D1F
CRC32 hash : 56251D1F
CRC32 hash (skip zero) : 630D3200
AccurateRip signature : 851DA245
->Accurately ripped! (confidence 2)
(matched with the different offset correction value;
calculated using an additional offset of 598;
the signature after correction is: 375168D3)
Statistics
Read error : 0
Skipped (treated as error) : 0
Edge jitter error (maybe fixed) : 0
Atom jitter error (maybe fixed) : 0
Drift error (maybe fixed) : 0
Dropped bytes error (maybe fixed) : 0
Duplicated bytes error (maybe fixed) : 0
Inconsistency in error sectors : 0

Track 17
Filename : 17 Catch 22 – Untitled.flac

CRC32 hash (test run) : 9C81CED0
CRC32 hash : 9C81CED0
CRC32 hash (skip zero) : 3459288B
AccurateRip signature : F95DAD62
->Accurately ripped! (confidence 2)
(matched with the different offset correction value;
calculated using an additional offset of 598;
the signature after correction is: 16B9214B)
Statistics
Read error : 0
Skipped (treated as error) : 0
Edge jitter error (maybe fixed) : 0
Atom jitter error (maybe fixed) : 0
Drift error (maybe fixed) : 0
Dropped bytes error (maybe fixed) : 0
Duplicated bytes error (maybe fixed) : 0
Inconsistency in error sectors : 0

Track 18
Filename : 18 Catch 22 – Untitled.flac

CRC32 hash (test run) : C16BF69A
CRC32 hash : C16BF69A
CRC32 hash (skip zero) : 574DD0C8
AccurateRip signature : B12ECAFE
->Accurately ripped! (confidence 2)
(matched with the different offset correction value;
calculated using an additional offset of 598;
the signature after correction is: 1F1DC827)
Statistics
Read error : 0
Skipped (treated as error) : 0
Edge jitter error (maybe fixed) : 0
Atom jitter error (maybe fixed) : 0
Drift error (maybe fixed) : 0
Dropped bytes error (maybe fixed) : 0
Duplicated bytes error (maybe fixed) : 0
Inconsistency in error sectors : 0

Track 19
Filename : 19 Catch 22 – Untitled.flac

CRC32 hash (test run) : EE330ACB
CRC32 hash : EE330ACB
CRC32 hash (skip zero) : 69DD2846
AccurateRip signature : 4CBBF2F5
->Accurately ripped! (confidence 2)
(matched with the different offset correction value;
calculated using an additional offset of 598;
the signature after correction is: FF6C7CC7)
Statistics
Read error : 0
Skipped (treated as error) : 0
Edge jitter error (maybe fixed) : 0
Atom jitter error (maybe fixed) : 0
Drift error (maybe fixed) : 0
Dropped bytes error (maybe fixed) : 0
Duplicated bytes error (maybe fixed) : 0
Inconsistency in error sectors : 0

Track 20
Filename : 20 Catch 22 – Untitled.flac

CRC32 hash (test run) : 99D9C145
CRC32 hash : 99D9C145
CRC32 hash (skip zero) : 69731A71
AccurateRip signature : FFAC49EC
->Accurately ripped! (confidence 2)
(matched with the different offset correction value;
calculated using an additional offset of 598;
the signature after correction is: FC5C1570)
Statistics
Read error : 0
Skipped (treated as error) : 0
Edge jitter error (maybe fixed) : 0
Atom jitter error (maybe fixed) : 0
Drift error (maybe fixed) : 0
Dropped bytes error (maybe fixed) : 0
Duplicated bytes error (maybe fixed) : 0
Inconsistency in error sectors : 0

Track 21
Filename : 21 Catch 22 – Untitled.flac

CRC32 hash (test run) : 9C9C48BA
CRC32 hash : 9C9C48BA
CRC32 hash (skip zero) : 378687C1
AccurateRip signature : B33E030C
->Accurately ripped! (confidence 2)
(matched with the different offset correction value;
calculated using an additional offset of 598;
the signature after correction is: D1373873)
Statistics
Read error : 0
Skipped (treated as error) : 0
Edge jitter error (maybe fixed) : 0
Atom jitter error (maybe fixed) : 0
Drift error (maybe fixed) : 0
Dropped bytes error (maybe fixed) : 0
Duplicated bytes error (maybe fixed) : 0
Inconsistency in error sectors : 0

Track 22
Filename : 22 Catch 22 – Untitled.flac

CRC32 hash (test run) : E2ECD108
CRC32 hash : E2ECD108
CRC32 hash (skip zero) : F62FFF9F
AccurateRip signature : 30718AAE
->Rip may not be accurate.
Statistics
Read error : 0
Skipped (treated as error) : 0
Edge jitter error (maybe fixed) : 0
Atom jitter error (maybe fixed) : 0
Drift error (maybe fixed) : 0
Dropped bytes error (maybe fixed) : 0
Duplicated bytes error (maybe fixed) : 0
Inconsistency in error sectors : 0

No errors occurred

End of status report

TITLE “Alone in a Crowd”
PERFORMER “Catch 22”
REM GENRE “Rock”
REM DATE 2000
FILE “01 Catch 22 – Intro.wav” WAVE
TRACK 01 AUDIO
TITLE “Intro”
INDEX 01 00:00:00
FILE “02 Catch 22 – Point The Blame.wav” WAVE
TRACK 02 AUDIO
TITLE “Point The Blame”
INDEX 01 00:00:00
FILE “03 Catch 22 – Sounds Good, But I Don’t Know.wav” WAVE
TRACK 03 AUDIO
TITLE “Sounds Good, But I Don’t Know”
INDEX 01 00:00:00
FILE “04 Catch 22 – It Takes Some Time.wav” WAVE
TRACK 04 AUDIO
TITLE “It Takes Some Time”
INDEX 01 00:00:00
FILE “05 Catch 22 – What Goes Around Comes Around.wav” WAVE
TRACK 05 AUDIO
TITLE “What Goes Around Comes Around”
INDEX 01 00:00:00
FILE “06 Catch 22 – Arm To Arm.wav” WAVE
TRACK 06 AUDIO
TITLE “Arm To Arm”
INDEX 01 00:00:00
FILE “07 Catch 22 – Guilty Pleasures.wav” WAVE
TRACK 07 AUDIO
TITLE “Guilty Pleasures”
INDEX 01 00:00:00
FILE “08 Catch 22 – Bloomfield Ave..wav” WAVE
TRACK 08 AUDIO
TITLE “Bloomfield Ave.”
INDEX 01 00:00:00
FILE “09 Catch 22 – Hard to Impress.wav” WAVE
TRACK 09 AUDIO
TITLE “Hard to Impress”
INDEX 01 00:00:00
FILE “10 Catch 22 – San Francisco Payphone.wav” WAVE
TRACK 10 AUDIO
TITLE “San Francisco Payphone”
INDEX 01 00:00:00
FILE “11 Catch 22 – Wreck Of The Sloop John B.wav” WAVE
TRACK 11 AUDIO
TITLE “Wreck Of The Sloop John B”
INDEX 01 00:00:00
FILE “12 Catch 22 – Neverending Story.wav” WAVE
TRACK 12 AUDIO
TITLE “Neverending Story”
INDEX 01 00:00:00
FILE “13 Catch 22 – Thinking About Things.wav” WAVE
TRACK 13 AUDIO
TITLE “Thinking About Things”
INDEX 01 00:00:00
FILE “14 Catch 22 – Alone In A Crowd.wav” WAVE
TRACK 14 AUDIO
TITLE “Alone In A Crowd”
INDEX 01 00:00:00
FILE “15 Catch 22 – Untitled.wav” WAVE
TRACK 15 AUDIO
TITLE “Untitled”
INDEX 01 00:00:00
FILE “16 Catch 22 – Untitled.wav” WAVE
TRACK 16 AUDIO
TITLE “Untitled”
INDEX 01 00:00:00
FILE “17 Catch 22 – Untitled.wav” WAVE
TRACK 17 AUDIO
TITLE “Untitled”
INDEX 01 00:00:00
FILE “18 Catch 22 – Untitled.wav” WAVE
TRACK 18 AUDIO
TITLE “Untitled”
INDEX 01 00:00:00
FILE “19 Catch 22 – Untitled.wav” WAVE
TRACK 19 AUDIO
TITLE “Untitled”
INDEX 01 00:00:00
FILE “20 Catch 22 – Untitled.wav” WAVE
TRACK 20 AUDIO
TITLE “Untitled”
INDEX 01 00:00:00
FILE “21 Catch 22 – Untitled.wav” WAVE
TRACK 21 AUDIO
TITLE “Untitled”
INDEX 01 00:00:00
FILE “22 Catch 22 – Untitled.wav” WAVE
TRACK 22 AUDIO
TITLE “Untitled”
INDEX 01 00:00:00


Leave a Reply

Your email address will not be published. Required fields are marked *

This site uses Akismet to reduce spam. Learn how your comment data is processed.