Carlos Santana – Havana Moon




No Cover available

Artist: Carlos Santana
Year: 1983/1988
Genre: Rock
Notes: Discogs
Add. Notes:
Watch Songs on: YouTube
Cover incl.: Yes
Encoder: FLAC
Bitrate: ~900 kBit/s (44.1 kHz/16 Bit/s)
Log & Cue incl.: Yes/Yes
Size: 341,94 MB
Password: “slam” (without ” “)


All Downloads/Hosters are compatible

Download 1
KatFile.com
Turbobit.net
Rapidgator.net
FileFactory.com
Download 2
KatFile.com
Turbobit.net
Rapidgator.net
FileFactory.com

Tracklist:

1 Watch Your Step 3:49
2 Lightnin' 3:50
3 Who Do You Love 2:54
4 Mudbone 5:50
5 One With You 5:17
6 Ecuador 1:10
7 Tales Of Kilimanjaro 4:51
8 Havana Moon 4:11
9 Daughter Of The Night 4:18
10 They All Went To Mexico 4:59
11 Vereda Tropical 4:58

EAC-Log, CUE-Sheed & NFO:

Click to open spoiler
Exact Audio Copy V1.0 beta 3 from 29. August 2011

Отчёт EAC об извлечении, выполненном 27. марта 2013, 16:56

Carlos Santana / Havana Moon

Дисковод: SONY CD-RW CRX230ED Adapter: 0 ID: 1

Режим чтения : Достоверность
Использование точного потока : Да
Отключение кэша аудио : Да
Использование указателей C2 : Нет

Коррекция смещения при чтении : 6
Способность читать области Lead-in и Lead-out : Нет
Заполнение пропущенных сэмплов тишиной : Да
Удаление блоков с тишиной в начале и конце : Нет
При вычислениях CRC использовались нулевые сэмплы : Да
Интерфейс : Установленный внешний ASPI-интерфейс

Выходной формат : Внутренние WAV-операции
Формат сэмплов : 44.100 Гц; 16 бит; стерео

TOC извлечённого CD

Трек | Старт | Длительность | Начальный сектор | Конечный сектор
———————————————————————
1 | 0:00.00 | 4:01.47 | 0 | 18121
2 | 4:01.47 | 3:50.70 | 18122 | 35441
3 | 7:52.42 | 2:55.10 | 35442 | 48576
4 | 10:47.52 | 5:51.65 | 48577 | 74966
5 | 16:39.42 | 5:14.25 | 74967 | 98541
6 | 21:53.67 | 1:10.40 | 98542 | 103831
7 | 23:04.32 | 4:50.43 | 103832 | 125624
8 | 27:55.00 | 4:09.42 | 125625 | 144341
9 | 32:04.42 | 4:18.45 | 144342 | 163736
10 | 36:23.12 | 4:47.60 | 163737 | 185321
11 | 41:10.72 | 4:57.48 | 185322 | 207644

Характеристики диапазона извлечения и сообщения об ошибках

Выбранный диапазон

Имя файла E:\MusicCD\Torrent\Santana\Carlos Santana – Havana Moon\Carlos Santana – Havana Moon.wav

Пиковый уровень 100.0 %
Скорость извлечения 6.2 X
Качество диапазона 100.0 %
CRC теста 50216908
CRC копии 50216908
Копирование… OK

Ошибок не произошло

AccurateRip: сводка

Трек 1 : извлечено точно (доверие 4) [755DF455] (AR v2)
Трек 2 : извлечено точно (доверие 4) [39D21A6A] (AR v2)
Трек 3 : извлечено точно (доверие 4) [5C31EC62] (AR v2)
Трек 4 : извлечено точно (доверие 4) [F454C865] (AR v2)
Трек 5 : извлечено точно (доверие 4) [83B01E6E] (AR v2)
Трек 6 : извлечено точно (доверие 4) [7931DF2A] (AR v2)
Трек 7 : извлечено точно (доверие 4) [0CDE99AF] (AR v2)
Трек 8 : извлечено точно (доверие 4) [CBA3B1D9] (AR v2)
Трек 9 : извлечено точно (доверие 4) [12ACBEBC] (AR v2)
Трек 10 : извлечено точно (доверие 4) [98650DB0] (AR v2)
Трек 11 : извлечено точно (доверие 4) [D39DC28D] (AR v2)

Все треки извлечены точно

Конец отчёта

==== Контрольная сумма отчёта F215067E9F6A6D621DBBA4620CC1132D3308BFA76FD5061324E5A1FF53E30145 ====

REM GENRE Rock
REM DATE 1983
REM DISCID 910AD00B
REM COMMENT “ExactAudioCopy v1.0b3”
PERFORMER “Carlos Santana”
TITLE “Havana Moon”
FILE “Carlos Santana – Havana Moon.flac” WAVE
TRACK 01 AUDIO
TITLE “Watch Your Step”
PERFORMER “Carlos Santana”
INDEX 01 00:00:00
TRACK 02 AUDIO
TITLE “Lightnin'”
PERFORMER “Carlos Santana”
INDEX 00 04:00:50
INDEX 01 04:01:47
TRACK 03 AUDIO
TITLE “Who Do You Love”
PERFORMER “Carlos Santana”
INDEX 01 07:52:42
TRACK 04 AUDIO
TITLE “Mudbone”
PERFORMER “Carlos Santana”
INDEX 00 10:46:25
INDEX 01 10:47:52
TRACK 05 AUDIO
TITLE “One With You”
PERFORMER “Carlos Santana”
INDEX 00 16:38:27
INDEX 01 16:39:42
TRACK 06 AUDIO
TITLE “Ecuador”
PERFORMER “Carlos Santana”
INDEX 01 21:53:67
TRACK 07 AUDIO
TITLE “Tales Of Kilimanjaro”
PERFORMER “Carlos Santana”
INDEX 01 23:04:32
TRACK 08 AUDIO
TITLE “Havana Moon”
PERFORMER “Carlos Santana”
INDEX 01 27:55:00
TRACK 09 AUDIO
TITLE “Daughter Of The Night”
PERFORMER “Carlos Santana”
INDEX 00 32:04:32
INDEX 01 32:04:42
TRACK 10 AUDIO
TITLE “They All Went To Mexico”
PERFORMER “Carlos Santana”
INDEX 00 36:21:52
INDEX 01 36:23:12
TRACK 11 AUDIO
TITLE “Vereda Tropical”
PERFORMER “Carlos Santana”
INDEX 00 41:10:07
INDEX 01 41:10:72


Leave a Reply

Your email address will not be published. Required fields are marked *

Enter the text from the image below
 

This site uses Akismet to reduce spam. Learn how your comment data is processed.