Carlos Santana & Buddy Miles – Live!




No Cover available

Artist: Carlos Santana & Buddy Miles
Year: 1972/1995
Genre: Rock
Notes: Discogs
Add. Notes:
Watch Songs at: YouTube
Cover incl.: Yes
Encoder: FLAC
Bitrate: ~900 kBit/s (44.1 kHz/16 Bit/s)
Log & Cue incl.: Yes/Yes
Size: 419,2 MB
Password: “slam” (without ” “)


All Downloads/Hosters are compatible

Download 1
KatFile.com
Turbobit.net
FileFactory.com
Rapidgator.net
Download 2
KatFile.com
Turbobit.net
FileFactory.com
Rapidgator.net

Tracklist:

1 Marbles 4:18
2 Lava 2:10
3 Evil Ways 6:36
4 Faith Interlude 2:13
5 Them Changes 5:50
6 Free Form Funkafide Filth 25:54

EAC-Log, CUE-Sheed & NFO:

Click to open spoiler
X Lossless Decoder version 20181019 (151.1)

XLD extraction logfile from 2019-05-16 18:09:14 +0500

Carlos Santana & Buddy Miles / Carlos Santana & Buddy Miles! Live!

Used drive : ASUS SDRW-08U9M-U (revision B101)
Media type : Pressed CD

Ripper mode : XLD Secure Ripper
Disable audio cache : OK for the drive with a cache less than 1375KiB
Make use of C2 pointers : NO
Read offset correction : 6
Max retry count : 20
Gap status : Analyzed, Appended

TOC of the extracted CD
Track | Start | Length | Start sector | End sector
———————————————————
1 | 00:00:32 | 04:18:53 | 32 | 19434
2 | 04:19:10 | 02:14:02 | 19435 | 29486
3 | 06:33:12 | 06:35:35 | 29487 | 59146
4 | 13:08:47 | 02:12:50 | 59147 | 69096
5 | 15:21:22 | 05:52:18 | 69097 | 95514
6 | 21:13:40 | 24:51:25 | 95515 | 207364

List of alternate offset correction values
# | Absolute | Relative | Confidence
——————————————
1 | 35 | 29 | 46

AccurateRip Summary (DiscID: 0007534e-0029b801-490acc06)
Track 01 : OK (v1+v2, confidence 45/91)
Track 02 : OK (v1+v2, confidence 45/91)
Track 03 : OK (v1+v2, confidence 45/91)
Track 04 : OK (v1+v2, confidence 45/91)
Track 05 : OK (v1+v2, confidence 45/91)
Track 06 : OK (v1+v2, confidence 44/89)
->All tracks accurately ripped.

All Tracks
Filename : /Users/mihail/Music/CDs/Carlos Santana & Buddy Miles – Carlos Santana & Buddy Miles! Live!.flac
Album gain : -2.88 dB
Peak : 0.978790
CRC32 hash (test run) : 3CEBC1EC
CRC32 hash : 3CEBC1EC
CRC32 hash (skip zero) : B8288885
Statistics
Read error : 0
Jitter error (maybe fixed) : 0
Retry sector count : 0
Damaged sector count : 0

Track 01
Pre-gap length : 00:02:32

Track gain : -2.22 dB
Peak : 0.933289
CRC32 hash (test run) : FA702616
CRC32 hash : FA702616
CRC32 hash (skip zero) : E9123742
AccurateRip v1 signature : 2815D8A2
AccurateRip v2 signature : 45F009BB
->Accurately ripped (v1+v2, confidence 17+28/91)
Statistics
Read error : 0
Jitter error (maybe fixed) : 0
Retry sector count : 0
Damaged sector count : 0

Track 02

Track gain : -3.70 dB
Peak : 0.809845
CRC32 hash (test run) : 1AA6D132
CRC32 hash : 1AA6D132
CRC32 hash (skip zero) : B69094B7
AccurateRip v1 signature : F0432409
AccurateRip v2 signature : 921D233B
->Accurately ripped (v1+v2, confidence 17+28/91)
Statistics
Read error : 0
Jitter error (maybe fixed) : 0
Retry sector count : 0
Damaged sector count : 0

Track 03
Pre-gap length : 00:02:17

Track gain : -4.08 dB
Peak : 0.978790
CRC32 hash (test run) : 3C40DA77
CRC32 hash : 3C40DA77
CRC32 hash (skip zero) : 9AC598ED
AccurateRip v1 signature : 35382553
AccurateRip v2 signature : 8591CBC0
->Accurately ripped (v1+v2, confidence 17+28/91)
Statistics
Read error : 0
Jitter error (maybe fixed) : 0
Retry sector count : 0
Damaged sector count : 0

Track 04

Track gain : -1.01 dB
Peak : 0.627594
CRC32 hash (test run) : F54CD334
CRC32 hash : F54CD334
CRC32 hash (skip zero) : EFA6C62E
AccurateRip v1 signature : 18E0B053
AccurateRip v2 signature : DB070230
->Accurately ripped (v1+v2, confidence 17+28/91)
Statistics
Read error : 0
Jitter error (maybe fixed) : 0
Retry sector count : 0
Damaged sector count : 0

Track 05

Track gain : -4.43 dB
Peak : 0.876526
CRC32 hash (test run) : 40F2BAB6
CRC32 hash : 40F2BAB6
CRC32 hash (skip zero) : D170B940
AccurateRip v1 signature : BF469A8D
AccurateRip v2 signature : BD967FFA
->Accurately ripped (v1+v2, confidence 17+28/91)
Statistics
Read error : 0
Jitter error (maybe fixed) : 0
Retry sector count : 0
Damaged sector count : 0

Track 06
Pre-gap length : 00:01:15

Track gain : -2.16 dB
Peak : 0.946411
CRC32 hash (test run) : C120A728
CRC32 hash : C120A728
CRC32 hash (skip zero) : 1698736B
AccurateRip v1 signature : 9FEEE450
AccurateRip v2 signature : 5EE09CCF
->Accurately ripped (v1+v2, confidence 17+27/89)
Statistics
Read error : 0
Jitter error (maybe fixed) : 0
Retry sector count : 0
Damaged sector count : 0

No errors occurred

End of status report

—–BEGIN XLD SIGNATURE—–
yRTaTaWf0.4bi018xWxN2OcowLenISVQ2ifAgKlECAvWKX2g0DzFSC0yaZDX8W1tdQa0H90AofH6pORDEGZ9nZeTdaNjLMXSsBeYR4i
—–END XLD SIGNATURE—–
,
TITLE “Carlos Santana & Buddy Miles! Live!”
PERFORMER “Carlos Santana & Buddy Miles”
CATALOG 5099747808920
REM DATE “1994”
REM DISCID 490ACC06
REM REPLAYGAIN_ALBUM_GAIN -2.88 dB
REM REPLAYGAIN_ALBUM_PEAK 0.978790
FILE “Carlos Santana & Buddy Miles – Carlos Santana & Buddy Miles! Live!.flac” WAVE
TRACK 01 AUDIO
TITLE “Marbles”
PERFORMER “Carlos Santana & Buddy Miles”
REM REPLAYGAIN_TRACK_GAIN -2.22 dB
REM REPLAYGAIN_TRACK_PEAK 0.933289
INDEX 00 00:00:00
INDEX 01 00:00:32
TRACK 02 AUDIO
TITLE “Lava”
PERFORMER “Carlos Santana & Buddy Miles”
REM REPLAYGAIN_TRACK_GAIN -3.70 dB
REM REPLAYGAIN_TRACK_PEAK 0.809845
INDEX 01 04:19:10
TRACK 03 AUDIO
TITLE “Evil Ways”
PERFORMER “Carlos Santana & Buddy Miles”
REM REPLAYGAIN_TRACK_GAIN -4.08 dB
REM REPLAYGAIN_TRACK_PEAK 0.978790
INDEX 00 06:30:70
INDEX 01 06:33:12
TRACK 04 AUDIO
TITLE “Faith Interlude”
PERFORMER “Carlos Santana & Buddy Miles”
REM REPLAYGAIN_TRACK_GAIN -1.01 dB
REM REPLAYGAIN_TRACK_PEAK 0.627594
INDEX 01 13:08:47
TRACK 05 AUDIO
TITLE “Them Changes”
PERFORMER “Carlos Santana & Buddy Miles”
REM REPLAYGAIN_TRACK_GAIN -4.43 dB
REM REPLAYGAIN_TRACK_PEAK 0.876526
INDEX 01 15:21:22
TRACK 06 AUDIO
TITLE “Free Form Funkafide Filth”
PERFORMER “Carlos Santana & Buddy Miles”
REM REPLAYGAIN_TRACK_GAIN -2.16 dB
REM REPLAYGAIN_TRACK_PEAK 0.946411
INDEX 00 21:12:25
INDEX 01 21:13:40


Leave a Reply

Your email address will not be published. Required fields are marked *

Enter the text from the image below
 

This site uses Akismet to reduce spam. Learn how your comment data is processed.