Carlos Santana – Blues For Salvador




No Cover available

Artist: Carlos Santana
Year: 1987
Genre: Rock
Notes: Discogs
Add. Notes:
Watch Songs on: YouTube
Cover incl.: Yes
Encoder: FLAC
Bitrate: ~900 kBit/s (44.1 kHz/16 Bit/s)
Log & Cue incl.: Yes/Yes
Size: 317,9 MB
Password: “slam” (without ” “)


All Downloads/Hosters are compatible

Download 1
KatFile.com
Turbobit.net
Rapidgator.net
FileFactory.com
Download 2
KatFile.com
Turbobit.net
Rapidgator.net
FileFactory.com

Tracklist:

1 Bailando/Aquatic Park 5:47
2 Bella 4:29
3 I'm Gone 3:09
4 'Trane 3:10
5 Deeper, Dig Deeper 6:08
6 Mingus 1:25
7 Now That You Know 10:25
8 Hannibal 4:27
9 Blues For Salvador 5:59

EAC-Log, CUE-Sheed & NFO:

Click to open spoiler
Exact Audio Copy V1.0 beta 3 from 29. August 2011

Отчёт EAC об извлечении, выполненном 28. марта 2013, 9:03

Carlos Santana / Blues For Salvador

Дисковод: SONY CD-RW CRX230ED Adapter: 0 ID: 1

Режим чтения : Достоверность
Использование точного потока : Да
Отключение кэша аудио : Да
Использование указателей C2 : Нет

Коррекция смещения при чтении : 6
Способность читать области Lead-in и Lead-out : Нет
Заполнение пропущенных сэмплов тишиной : Да
Удаление блоков с тишиной в начале и конце : Нет
При вычислениях CRC использовались нулевые сэмплы : Да
Интерфейс : Установленный внешний ASPI-интерфейс

Выходной формат : Внутренние WAV-операции
Формат сэмплов : 44.100 Гц; 16 бит; стерео

TOC извлечённого CD

Трек | Старт | Длительность | Начальный сектор | Конечный сектор
———————————————————————
1 | 0:00.00 | 5:46.15 | 0 | 25964
2 | 5:46.15 | 4:31.05 | 25965 | 46294
3 | 10:17.20 | 3:08.60 | 46295 | 60454
4 | 13:26.05 | 3:11.22 | 60455 | 74801
5 | 16:37.27 | 6:09.63 | 74802 | 102539
6 | 22:47.15 | 1:26.55 | 102540 | 109044
7 | 24:13.70 | 10:29.40 | 109045 | 156259
8 | 34:43.35 | 4:28.35 | 156260 | 176394
9 | 39:11.70 | 5:57.57 | 176395 | 203226

Характеристики диапазона извлечения и сообщения об ошибках

Выбранный диапазон

Имя файла E:\MusicCD\Torrent\Santana\Carlos Santana – Blues For Salvador\Carlos Santana – Blues For Salvador.wav

Пиковый уровень 100.0 %
Скорость извлечения 6.3 X
Качество диапазона 100.0 %
CRC теста 77DF2EBD
CRC копии 77DF2EBD
Копирование… OK

Ошибок не произошло

AccurateRip: сводка

Трек 1 точность не определена (достоверность 22) [81B87991], AccurateRip вернул [59D1E6F3] (AR v2)
Трек 2 точность не определена (достоверность 22) [0DA7BE51], AccurateRip вернул [234DF746] (AR v2)
Трек 3 точность не определена (достоверность 22) [FC0C7A90], AccurateRip вернул [484DAC0D] (AR v2)
Трек 4 точность не определена (достоверность 22) [7760930D], AccurateRip вернул [386494B5] (AR v2)
Трек 5 точность не определена (достоверность 22) [C0671BC2], AccurateRip вернул [B472CB6B] (AR v2)
Трек 6 точность не определена (достоверность 22) [747E6A0C], AccurateRip вернул [86E158E4] (AR v2)
Трек 7 точность не определена (достоверность 22) [61955415], AccurateRip вернул [1197894A] (AR v2)
Трек 8 точность не определена (достоверность 22) [F719EFBA], AccurateRip вернул [62D40A87] (AR v2)
Трек 9 точность не определена (достоверность 22) [07463024], AccurateRip вернул [54C334BF] (AR v2)

Ни один трек не прошёл проверки на точность
В вашей базе может быть иной вариант штамповки диска

Конец отчёта

==== Контрольная сумма отчёта 7E20C866523801E5B336110FF44DF172F1615F151FA7706D02561D87B5D543FF ====

REM GENRE Rock
REM DATE 1987
REM DISCID 8A0A9509
REM COMMENT “ExactAudioCopy v1.0b3”
PERFORMER “Carlos Santana”
TITLE “Blues For Salvador”
FILE “Carlos Santana – Blues For Salvador.flac” WAVE
TRACK 01 AUDIO
TITLE “Bailando – Aquatic Park”
PERFORMER “Carlos Santana”
INDEX 01 00:00:00
TRACK 02 AUDIO
TITLE “Bella”
PERFORMER “Carlos Santana”
INDEX 00 05:45:07
INDEX 01 05:46:15
TRACK 03 AUDIO
TITLE “I’m Gone”
PERFORMER “Carlos Santana”
INDEX 00 10:14:72
INDEX 01 10:17:20
TRACK 04 AUDIO
TITLE “‘Trane”
PERFORMER “Carlos Santana”
INDEX 00 13:24:60
INDEX 01 13:26:05
TRACK 05 AUDIO
TITLE “Deeper, Dig Deeper”
PERFORMER “Carlos Santana”
INDEX 00 16:35:65
INDEX 01 16:37:27
TRACK 06 AUDIO
TITLE “Mingus”
PERFORMER “Carlos Santana”
INDEX 00 22:45:05
INDEX 01 22:47:15
TRACK 07 AUDIO
TITLE “Now That You Know”
PERFORMER “Carlos Santana”
INDEX 00 24:12:12
INDEX 01 24:13:70
TRACK 08 AUDIO
TITLE “Hannibal”
PERFORMER “Carlos Santana”
INDEX 00 34:38:15
INDEX 01 34:43:35
TRACK 09 AUDIO
TITLE “Blues For Salvador”
PERFORMER “Carlos Santana”
INDEX 00 39:09:52
INDEX 01 39:11:70


Leave a Reply

Your email address will not be published. Required fields are marked *

This site uses Akismet to reduce spam. Learn how your comment data is processed.