C.I.A. – Codename Freibeuter




No Cover available

Artist: C.I.A.
Year: 1998
Genre: Punk
Notes: Discogs
Add. Notes:
Watch Songs on: YouTube
Cover incl.: Yes
Encoder: FLAC
Bitrate: ~1100 kBit/s (44.1 kHz/16 Bit/s)
Log & Cue incl.: Yes
Size: 421,7 MB
Password: “slam” (without ” “)


All Downloads/Hosters are compatible

Download 1
KatFile.com
Turbobit.net
Rapidgator.net
FileFactory.com
Download 2
KatFile.com
Turbobit.net
Rapidgator.net
FileFactory.com

Tracklist:

1 - Scheißfreundlich - 3:49
2 - Himmel - 3:16
3 - Klabautermann - 3:40
4 - Im Ghetto - 2:49
5 - Rebellen - 2:50
6 - König Von Deutschland - 3:35
7 - So Lang Ich Träum - 3:42
8 - So Wichtig - 4:34
9 - Seelenkiller 2 - 5:57
10 - Der Störtebecker - 3:06
11 - Utopia - 3:26
12 - Fields Of Athenry - 5:12
13 - Morituri Te Salutant - 3:55

EAC-Log, CUE-Sheed & NFO:

Click to open spoiler
Exact Audio Copy V1.3 from 2. September 2016

EAC Auslese-Logdatei vom 13. Oktober 2019, 12:45

C.I.A. / Codename Freibeuter

Benutztes Laufwerk : ASUS DRW-24D5MT Adapter: 1 ID: 0

Lesemodus : Sicher
Benutze Accurate Stream : Ja
Audio Puffer abgeschaltet : Ja
Benutze C2 Fehlerinformationen : Nein

Leseoffset Korrektur : 6
Überlesen in das Lead-In und Lead-Out : Nein
Fülle fehlende Offsetsample mit Stille auf : Ja
Lösche führende und nachfolgende stille Blöcke : Nein
Null Samples gehen in CRC Berechnungen ein : Ja
Benutzte Schnittstelle : Natürliche Win32 Schnittstelle für Win NT/2000/XP
Pausenbehandlung : Nicht erkannt, daher hinter dem vorigen Track angehängt

Benutztes Ausgabeformat : Benutzerdefinierter Komprimierer
Gewählte Bitrate : 1024 kBit/s
Qualität : Hoch
Füge ID3 Tag hinzu : Nein
Kommandozeilen Komprimierer : C:\Program Files (x86)\Exact Audio Copy\FLAC\FLAC.EXE
Zusätzliche Kommandozeilenoptionen : -8 -V -T “ARTIST=%artist%” -T “TITLE=%title%” -T “ALBUM=%albumtitle%” -T “DATE=%year%” -T “TRACKNUMBER=%tracknr%” -T “GENRE=%genre%” -T “COMMENT=%comment%” -T “BAND=%albuminterpret%” -T “COMPOSER=%composer%” %haslyrics%–tag-from-file=LYRICS=”%lyricsfile%”%haslyrics% -T “DISCNUMBER=%cdnumber%” -T “TOTALDISCS=%totalcds%” -T “TOTALTRACKS=%numtracks%” %hascover%–picture=”%coverfile%”%hascover% %source% -o %dest%

TOC der ausgelesenen CD

Track | Start | Länge | Startsektor | Endsektor
——————————————————-
1 | 0:00.00 | 3:49.65 | 0 | 17239
2 | 3:49.65 | 3:15.40 | 17240 | 31904
3 | 7:05.30 | 3:41.70 | 31905 | 48549
4 | 10:47.25 | 2:49.52 | 48550 | 61276
5 | 13:37.02 | 2:50.38 | 61277 | 74064
6 | 16:27.40 | 3:35.05 | 74065 | 90194
7 | 20:02.45 | 3:43.20 | 90195 | 106939
8 | 23:45.65 | 4:34.15 | 106940 | 127504
9 | 28:20.05 | 5:58.40 | 127505 | 154394
10 | 34:18.45 | 3:05.02 | 154395 | 168271
11 | 37:23.47 | 3:27.00 | 168272 | 183796
12 | 40:50.47 | 5:10.43 | 183797 | 207089
13 | 46:01.15 | 4:24.15 | 207090 | 226904
14 | 50:25.30 | 4:20.50 | 226905 | 246454

Track 1

Dateiname M:\SLAM\www.slam.ws – Lossless Alternative Music\C.I.A\Codename Freibeuter\01. Scheißfreundlich.wav

Spitzenpegel 99.0 %
Auslesegeschwindigkeit 1.0 X
Track Qualität 100.0 %
Kopie CRC 6392D7A5
Akkurat gelesen (Zuversicht 4) [5459DEB6] (AR v2)
Kopie OK

Track 2

Dateiname M:\SLAM\www.slam.ws – Lossless Alternative Music\C.I.A\Codename Freibeuter\02. Himmel.wav

Spitzenpegel 99.0 %
Auslesegeschwindigkeit 0.9 X
Track Qualität 99.9 %
Kopie CRC D92971E8
Akkurat gelesen (Zuversicht 4) [306BD7B0] (AR v2)
Kopie OK

Track 3

Dateiname M:\SLAM\www.slam.ws – Lossless Alternative Music\C.I.A\Codename Freibeuter\03. Klabautermann.wav

Spitzenpegel 99.0 %
Auslesegeschwindigkeit 1.2 X
Track Qualität 100.0 %
Kopie CRC 272C3B55
Akkurat gelesen (Zuversicht 4) [E067761D] (AR v2)
Kopie OK

Track 4

Dateiname M:\SLAM\www.slam.ws – Lossless Alternative Music\C.I.A\Codename Freibeuter\04. Im Ghetto.wav

Spitzenpegel 99.0 %
Auslesegeschwindigkeit 1.2 X
Track Qualität 100.0 %
Kopie CRC C5AE8BF1
Akkurat gelesen (Zuversicht 4) [82425F3F] (AR v2)
Kopie OK

Track 5

Dateiname M:\SLAM\www.slam.ws – Lossless Alternative Music\C.I.A\Codename Freibeuter\05. Rebellen.wav

Spitzenpegel 99.0 %
Auslesegeschwindigkeit 1.3 X
Track Qualität 100.0 %
Kopie CRC 863B32C2
Akkurat gelesen (Zuversicht 4) [F439545B] (AR v2)
Kopie OK

Track 6

Dateiname M:\SLAM\www.slam.ws – Lossless Alternative Music\C.I.A\Codename Freibeuter\06. König von Deutschland.wav

Spitzenpegel 99.0 %
Auslesegeschwindigkeit 1.4 X
Track Qualität 100.0 %
Kopie CRC 188ABC64
Akkurat gelesen (Zuversicht 4) [24069060] (AR v2)
Kopie OK

Track 7

Dateiname M:\SLAM\www.slam.ws – Lossless Alternative Music\C.I.A\Codename Freibeuter\07. So lang ich träum.wav

Spitzenpegel 99.0 %
Auslesegeschwindigkeit 1.5 X
Track Qualität 100.0 %
Kopie CRC 14BC76C8
Akkurat gelesen (Zuversicht 4) [FA4F52B1] (AR v2)
Kopie OK

Track 8

Dateiname M:\SLAM\www.slam.ws – Lossless Alternative Music\C.I.A\Codename Freibeuter\08. So wichtig.wav

Spitzenpegel 99.0 %
Auslesegeschwindigkeit 1.4 X
Track Qualität 99.9 %
Kopie CRC A8056A04
Akkurat gelesen (Zuversicht 4) [D99572A8] (AR v2)
Kopie OK

Track 9

Dateiname M:\SLAM\www.slam.ws – Lossless Alternative Music\C.I.A\Codename Freibeuter\09. Seelenkiller.wav

Spitzenpegel 100.0 %
Auslesegeschwindigkeit 1.6 X
Track Qualität 99.9 %
Kopie CRC 71E4437C
Akkurat gelesen (Zuversicht 4) [62182230] (AR v2)
Kopie OK

Track 10

Dateiname M:\SLAM\www.slam.ws – Lossless Alternative Music\C.I.A\Codename Freibeuter\10. Der Störtebecker.wav

Spitzenpegel 99.0 %
Auslesegeschwindigkeit 1.7 X
Track Qualität 100.0 %
Kopie CRC DA6B7BA9
Akkurat gelesen (Zuversicht 4) [A9FDF1E7] (AR v2)
Kopie OK

Track 11

Dateiname M:\SLAM\www.slam.ws – Lossless Alternative Music\C.I.A\Codename Freibeuter\11. Utopia.wav

Spitzenpegel 99.0 %
Auslesegeschwindigkeit 1.8 X
Track Qualität 100.0 %
Kopie CRC 6A826984
Akkurat gelesen (Zuversicht 4) [3F39562C] (AR v2)
Kopie OK

Track 12

Dateiname M:\SLAM\www.slam.ws – Lossless Alternative Music\C.I.A\Codename Freibeuter\12. Fields of Athenry.wav

Spitzenpegel 99.0 %
Auslesegeschwindigkeit 1.9 X
Track Qualität 100.0 %
Kopie CRC 9AC9E2D1
Akkurat gelesen (Zuversicht 4) [D1834964] (AR v2)
Kopie OK

Track 13

Dateiname M:\SLAM\www.slam.ws – Lossless Alternative Music\C.I.A\Codename Freibeuter\13. Morituri Te Salutant.wav

Spitzenpegel 99.0 %
Auslesegeschwindigkeit 2.0 X
Track Qualität 100.0 %
Kopie CRC 8959065B
Akkurat gelesen (Zuversicht 4) [13615A51] (AR v2)
Kopie OK

Track 14

Dateiname M:\SLAM\www.slam.ws – Lossless Alternative Music\C.I.A\Codename Freibeuter\14. Bonustrack.wav

Spitzenpegel 99.0 %
Auslesegeschwindigkeit 2.0 X
Track Qualität 100.0 %
Kopie CRC 257A3A3E
Akkurat gelesen (Zuversicht 4) [0C224AC4] (AR v2)
Kopie OK

Alle Tracks wurden akkurat gelesen

Keine Fehler aufgetreten

Ende des Statusreports

—- CUETools DB Plugin V2.1.6

[CTDB TOCID: DKqCxij3kTN8aFLhy1.ZFWhCtpw-] found
Submit result: DKqCxij3kTN8aFLhy1.ZFWhCtpw- has been confirmed
Track | CTDB Status
1 | (12/12) Accurately ripped
2 | (12/12) Accurately ripped
3 | (12/12) Accurately ripped
4 | (12/12) Accurately ripped
5 | (12/12) Accurately ripped
6 | (12/12) Accurately ripped
7 | (12/12) Accurately ripped
8 | (12/12) Accurately ripped
9 | (12/12) Accurately ripped
10 | (12/12) Accurately ripped
11 | (12/12) Accurately ripped
12 | (12/12) Accurately ripped
13 | (12/12) Accurately ripped
14 | (12/12) Accurately ripped

REM GENRE “Punk Rock”
REM DATE 1998
REM DISCID B30CD60E
REM COMMENT “ExactAudioCopy v1.3”
PERFORMER “C.I.A.”
TITLE “Codename Freibeuter”
REM COMPOSER “”
FILE “Range.wav” WAVE
TRACK 01 AUDIO
TITLE “Scheißfreundlich”
PERFORMER “C.I.A.”
REM COMPOSER “”
INDEX 01 00:00:00
TRACK 02 AUDIO
TITLE “Himmel”
PERFORMER “C.I.A.”
REM COMPOSER “”
INDEX 00 03:48:45
INDEX 01 03:49:65
TRACK 03 AUDIO
TITLE “Klabautermann”
PERFORMER “C.I.A.”
REM COMPOSER “”
INDEX 00 07:05:05
INDEX 01 07:05:30
TRACK 04 AUDIO
TITLE “Im Ghetto”
PERFORMER “C.I.A.”
REM COMPOSER “”
INDEX 00 10:45:12
INDEX 01 10:47:25
TRACK 05 AUDIO
TITLE “Rebellen”
PERFORMER “C.I.A.”
REM COMPOSER “”
INDEX 00 13:34:65
INDEX 01 13:37:02
TRACK 06 AUDIO
TITLE “König von Deutschland”
PERFORMER “C.I.A.”
REM COMPOSER “”
INDEX 00 16:25:30
INDEX 01 16:27:40
TRACK 07 AUDIO
TITLE “So lang ich träum”
PERFORMER “C.I.A.”
REM COMPOSER “”
INDEX 00 20:01:02
INDEX 01 20:02:45
TRACK 08 AUDIO
TITLE “So wichtig”
PERFORMER “C.I.A.”
REM COMPOSER “”
INDEX 00 23:43:42
INDEX 01 23:45:65
TRACK 09 AUDIO
TITLE “Seelenkiller”
PERFORMER “C.I.A.”
REM COMPOSER “”
INDEX 00 28:18:37
INDEX 01 28:20:05
TRACK 10 AUDIO
TITLE “Der Störtebecker”
PERFORMER “C.I.A.”
REM COMPOSER “”
INDEX 00 34:15:62
INDEX 01 34:18:45
TRACK 11 AUDIO
TITLE “Utopia”
PERFORMER “C.I.A.”
REM COMPOSER “”
INDEX 00 37:22:05
INDEX 01 37:23:47
TRACK 12 AUDIO
TITLE “Fields of Athenry”
PERFORMER “C.I.A.”
REM COMPOSER “”
INDEX 00 40:48:22
INDEX 01 40:50:47
TRACK 13 AUDIO
TITLE “Morituri Te Salutant”
PERFORMER “C.I.A.”
REM COMPOSER “”
INDEX 00 46:00:25
INDEX 01 46:01:15
TRACK 14 AUDIO
TITLE “Bonustrack”
PERFORMER “C.I.A.”
REM COMPOSER “”
INDEX 00 49:55:62
INDEX 01 50:25:30


Leave a Reply

Your email address will not be published. Required fields are marked *

This site uses Akismet to reduce spam. Learn how your comment data is processed.