Burning Witches – Dance With The Devil




No Cover available


Artist: Burning Witches
Year: 2020
Genre: Metal
Notes: Discogs
Add. Notes:
Watch Songs on: YouTube
Cover incl.: Yes
Encoder: FLAC
Bitrate: ~1000 kBit/s (44.1 kHz/16 Bit/s)
Log & Cue incl.: Yes/Yes
Size: 437,5 MB
Password: “slam” (without ” “)


All Downloads/Hosters are compatible

Download 1
KatFile.com
Turbobit.net
Rapidgator.net
FileFactory.com
Download 2
KatFile.com
Turbobit.net
Rapidgator.net
FileFactory.com

Tracklist:

1 The Incantation 
2 Lucid Nightmare 
3 Dance With The Devil 
4 Wings Of Steel 
5 Six Feet Underground 
6 Black Magic 
7 Sea Of Lies 
8 The Sisters Of Fate 
9 Necronomicon 
10 The Final Fight 
11 Threefold Return 
12 Battle Hymn

EAC-Log, CUE-Sheed & NFO:

Click to open spoiler
Exact Audio Copy V1.5 from 20. February 2020

EAC extraction logfile from 21. March 2020, 20:30

Burning Witches / Dance With The Devil

Used drive : ASUS DRW-24B3ST Adapter: 2 ID: 0

Read mode : Secure
Utilize accurate stream : Yes
Defeat audio cache : Yes
Make use of C2 pointers : No

Read offset correction : 6
Overread into Lead-In and Lead-Out : No
Fill up missing offset samples with silence : Yes
Delete leading and trailing silent blocks : No
Null samples used in CRC calculations : Yes
Used interface : Installed external ASPI interface

Used output format : User Defined Encoder
Selected bitrate : 1024 kBit/s
Quality : High
Add ID3 tag : No
Command line compressor : C:\Program Files (x86)\Exact Audio Copy\FLAC\FLAC.EXE
Additional command line options : -V -8 -T “Date=%year%” -T “Genre=%genre%” -T”COMMENT=CDRip for me-4u.com” -8 -V %source%

TOC of the extracted CD

Track | Start | Length | Start sector | End sector
———————————————————
1 | 0:00.32 | 0:57.71 | 32 | 4377
2 | 0:58.28 | 4:50.20 | 4378 | 26147
3 | 5:48.48 | 4:26.35 | 26148 | 46132
4 | 10:15.08 | 4:29.66 | 46133 | 66373
5 | 14:44.74 | 4:31.65 | 66374 | 86763
6 | 19:16.64 | 5:06.59 | 86764 | 109772
7 | 24:23.48 | 4:56.57 | 109773 | 132029
8 | 29:20.30 | 3:31.39 | 132030 | 147893
9 | 32:51.69 | 4:12.48 | 147894 | 166841
10 | 37:04.42 | 4:35.34 | 166842 | 187500
11 | 41:40.01 | 3:56.40 | 187501 | 205240
12 | 45:36.41 | 6:55.44 | 205241 | 236409

Range status and errors

Selected range

Filename C:\CDRip for me-4u.com\Burning Witches – Dance With The Devil.wav

Peak level 96.5 %
Extraction speed 6.1 X
Range quality 100.0 %
Test CRC 5390F4A2
Copy CRC 5390F4A2
Copy OK

No errors occurred

AccurateRip summary

Track 1 not present in database
Track 2 not present in database
Track 3 not present in database
Track 4 not present in database
Track 5 not present in database
Track 6 not present in database
Track 7 not present in database
Track 8 not present in database
Track 9 not present in database
Track 10 not present in database
Track 11 not present in database
Track 12 not present in database

None of the tracks are present in the AccurateRip database

End of status report

—- CUETools DB Plugin V2.1.6

[CTDB TOCID: 3Eqla6aIzE8kuQc6YRoPu.AjHbQ-] found
Submit result: 3Eqla6aIzE8kuQc6YRoPu.AjHbQ- has been confirmed
Track | CTDB Status
1 | (13/13) Accurately ripped
2 | (13/13) Accurately ripped
3 | (13/13) Accurately ripped
4 | (13/13) Accurately ripped
5 | (13/13) Accurately ripped
6 | (13/13) Accurately ripped
7 | (13/13) Accurately ripped
8 | (13/13) Accurately ripped
9 | (13/13) Accurately ripped
10 | (13/13) Accurately ripped
11 | (13/13) Accurately ripped
12 | (13/13) Accurately ripped

==== Log checksum 588D274DA723C04655FAB3D0650A1400D5F961E26C40503D1BDB16E8207FD435 ====

REM GENRE “Power Metal”
REM DATE 2020
REM DISCID A00C500C
REM COMMENT “ExactAudioCopy v1.5”
CATALOG 0727361521520
PERFORMER “Burning Witches”
TITLE “Dance With The Devil”
REM COMPOSER “Burning Witches”
FILE “Burning Witches – Dance With The Devil.flac” WAVE
TRACK 01 AUDIO
TITLE “The Incantation”
PERFORMER “Burning Witches”
REM COMPOSER “Burning Witches”
ISRC DED831901434
INDEX 00 00:00:00
INDEX 01 00:00:32
TRACK 02 AUDIO
TITLE “Lucid Nightmare”
PERFORMER “Burning Witches”
REM COMPOSER “Burning Witches”
ISRC DED831901435
INDEX 01 00:58:28
TRACK 03 AUDIO
TITLE “Dance With The Devil”
PERFORMER “Burning Witches”
REM COMPOSER “Burning Witches”
ISRC DED831901436
INDEX 01 05:48:48
TRACK 04 AUDIO
TITLE “Wings Of Steel”
PERFORMER “Burning Witches”
REM COMPOSER “Burning Witches”
ISRC DED831900788
INDEX 01 10:15:08
TRACK 05 AUDIO
TITLE “Six Feet Underground”
PERFORMER “Burning Witches”
REM COMPOSER “Burning Witches”
ISRC DED831901437
INDEX 01 14:44:74
TRACK 06 AUDIO
TITLE “Black Magic”
PERFORMER “Burning Witches”
REM COMPOSER “Burning Witches”
ISRC DED831901438
INDEX 01 19:16:64
TRACK 07 AUDIO
TITLE “Sea Of Lies”
PERFORMER “Burning Witches”
REM COMPOSER “Burning Witches”
ISRC DED831901439
INDEX 01 24:23:48
TRACK 08 AUDIO
TITLE “The Sisters Of Fate”
PERFORMER “Burning Witches”
REM COMPOSER “Burning Witches”
ISRC DED831901440
INDEX 01 29:20:30
TRACK 09 AUDIO
TITLE “Necronomicon”
PERFORMER “Burning Witches”
REM COMPOSER “Burning Witches”
ISRC DED831901441
INDEX 01 32:51:69
TRACK 10 AUDIO
TITLE “The Final Fight”
PERFORMER “Burning Witches”
REM COMPOSER “Burning Witches”
ISRC DED831901442
INDEX 01 37:04:42
TRACK 11 AUDIO
TITLE “Threefold Return”
PERFORMER “Burning Witches”
REM COMPOSER “Burning Witches”
ISRC DED831901443
INDEX 01 41:40:01
TRACK 12 AUDIO
TITLE “Battle Hymn”
PERFORMER “Burning Witches”
REM COMPOSER “Burning Witches”
ISRC DED831901444
INDEX 01 45:36:41


Leave a Reply

Your email address will not be published. Required fields are marked *

Enter the text from the image below
 

This site uses Akismet to reduce spam. Learn how your comment data is processed.