Bruce Springsteen – The Wild, The Innocent And The E Street Shuffle




No Cover available

Artist: Bruce Springsteen
Year: 1973/2010
Genre: Rock
Notes: Discogs
Add. Notes:
Watch Songs on: YouTube
Cover incl.: Yes
Encoder: FLAC
Bitrate: ~800 kBit/s (44.1 kHz/16 Bit/s)
Log & Cue incl.: Yes/Yes
Size: 320,7 MB
Password: “slam” (without ” “)


All Downloads/Hosters are compatible

Download 1
KatFile.com
Turbobit.net
Rapidgator.net
FileFactory.com
Download 2
KatFile.com
Turbobit.net
Rapidgator.net
FileFactory.com

Tracklist:

1 The E Street Shuffle 4:31
2 4th Of July, Asbury Park (Sandy) 5:37
3 Kitty's Back 7:09
4 Wild Billy's Circus Story 4:48
5 Incident On 57th Street 7:45
6 Rosalita (Come Out Tonight) 7:05
7 New York City Serenade 9:55

EAC-Log, CUE-Sheed & NFO:

Click to open spoiler
Exact Audio Copy V1.0 beta 1 from 15. November 2010

EAC extraction logfile from 14. May 2011, 1:12

Bruce Springsteen / The Wild, The Innocent & The E Street Shuffle

Used drive : HL-DT-STDVDRAM GSA-H60N Adapter: 2 ID: 0

Read mode : Secure
Utilize accurate stream : Yes
Defeat audio cache : Yes
Make use of C2 pointers : No

Read offset correction : 667
Overread into Lead-In and Lead-Out : No
Fill up missing offset samples with silence : Yes
Delete leading and trailing silent blocks : No
Null samples used in CRC calculations : Yes
Used interface : Native Win32 interface for Win NT & 2000

Used output format : Internal WAV Routines
Sample format : 44.100 Hz; 16 Bit; Stereo

TOC of the extracted CD

Track | Start | Length | Start sector | End sector
———————————————————
1 | 0:00.00 | 4:30.60 | 0 | 20309
2 | 4:30.60 | 5:36.72 | 20310 | 45581
3 | 10:07.57 | 7:09.23 | 45582 | 77779
4 | 17:17.05 | 4:47.72 | 77780 | 99376
5 | 22:05.02 | 7:44.68 | 99377 | 134244
6 | 29:49.70 | 7:04.67 | 134245 | 166111
7 | 36:54.62 | 9:55.18 | 166112 | 210754

Range status and errors

Selected range

Filename C:\Documents and Settings\Администратор\Рабочий стол\Rip by ALLexxess\2010 Bruce Springsteen Collection 1973 -1984 (8CD Box Set Sony Music)\1973 The Wild, The Innocent & The E Street Shuffle\Bruce Springsteen – The Wild, The In

Peak level 100.0 %
Extraction speed 1.2 X
Range quality 100.0 %
Test CRC 35215A4E
Copy CRC 35215A4E
Copy OK

No errors occurred

AccurateRip summary

Track 1 accurately ripped (confidence 23) [3E6AFEA3]
Track 2 accurately ripped (confidence 23) [BCEA2B06]
Track 3 accurately ripped (confidence 23) [C67E6ED3]
Track 4 accurately ripped (confidence 23) [4CE42BE9]
Track 5 accurately ripped (confidence 23) [679793CD]
Track 6 accurately ripped (confidence 23) [3C017221]
Track 7 accurately ripped (confidence 23) [75F5253B]

All tracks accurately ripped

End of status report

==== Log checksum 0271844339424404FC5C59464F61E8DC887AF29745D734439670131F22EEB50C ====

REM GENRE “Rock / Pop Rock”
REM DATE 1973
REM DISCID 530AFA07
REM COMMENT “ExactAudioCopy v1.0b1”
PERFORMER “Bruce Springsteen”
TITLE “The Wild, The Innocent & The E Street Shuffle”
FILE “Bruce Springsteen – The Wild, The Innocent.flac” WAVE
TRACK 01 AUDIO
TITLE “The E Street Shuffle”
PERFORMER “Bruce Springsteen”
INDEX 01 00:00:00
TRACK 02 AUDIO
TITLE “4th Of July Asbury Park (Sandy)”
PERFORMER “Bruce Springsteen”
INDEX 00 04:26:05
INDEX 01 04:30:60
TRACK 03 AUDIO
TITLE “Kitty’s Back”
PERFORMER “Bruce Springsteen”
INDEX 00 10:05:57
INDEX 01 10:07:57
TRACK 04 AUDIO
TITLE “Wild Billy’s Circus Store”
PERFORMER “Bruce Springsteen”
INDEX 00 17:13:45
INDEX 01 17:17:05
TRACK 05 AUDIO
TITLE “Incident On 57th Street”
PERFORMER “Bruce Springsteen”
INDEX 00 21:58:60
INDEX 01 22:05:02
TRACK 06 AUDIO
TITLE “Rosalita (Come Out Tonight)”
PERFORMER “Bruce Springsteen”
INDEX 01 29:49:70
TRACK 07 AUDIO
TITLE “New York City Serenade”
PERFORMER “Bruce Springsteen”
INDEX 00 36:51:25
INDEX 01 36:54:62


Leave a Reply

Your email address will not be published. Required fields are marked *

Enter the text from the image below
 

This site uses Akismet to reduce spam. Learn how your comment data is processed.