Bruce Springsteen – The Rising (Limited Japanese Edition)




No Cover available

Artist: Bruce Springsteen
Year: 2002
Genre: Rock
Notes: Discogs
Add. Notes: Limited Japanese Edition
Watch Songs on: YouTube
Cover incl.: Yes
Encoder: FLAC
Bitrate: ~1000 kBit/s (44.1 kHz/16 Bit/s)
Log & Cue incl.: Yes/Yes
Size: 499,8 MB
Password: “slam” (without ” “)


All Downloads/Hosters are compatible

Download 1
KatFile.com
Turbobit.net
Rapidgator.net
FileFactory.com
Download 2
KatFile.com
Turbobit.net
Rapidgator.net
FileFactory.com

Tracklist:

1 - Lonesome Day - 4:05
2 - Into The Fire - 5:01
3 - Waitin' On A Sunny Day - 4:16
4 - Nothing Man - 4:20
5 - Countin' On A Miracle - 4:40
6 - Empty Sky - 3:32
7 - Worlds Apart - 6:02
8 - Let's Be Friends [Skin To Skin] - 4:18
9 - Further On [Up The Road] - 3:50
10 - The Fuse - 5:36
11 - Mary's Place - 5:59
12 - You're Missing - 5:08
13 - The Rising - 4:47
14 - Paradise - 5:34
15 - My City Of Ruins - 5:00

EAC-Log, CUE-Sheed & NFO:

Click to open spoiler
EAC extraction logfile from 27. December 2007, 13:57 for CD
Bruce Springsteen / The Rising

Used drive : SONY DVD RW DRU-830A Adapter: 0 ID: 0
Read mode : Secure with NO C2, accurate stream, disable cache
Read offset correction : 6
Overread into Lead-In and Lead-Out : No

Used output format : C:\Program Files\Exact Audio Copy\flac.exe (User Defined Encoder)
192 kBit/s
Additional command line options : -V -5 -T “artist=%a” -T “title=%t” -T “album=%g” -T “date=%y” -T “tracknumber=%n” -T “genre=%m” %s

Other options :
Fill up missing offset samples with silence : Yes
Delete leading and trailing silent blocks : No
Installed external ASPI interface

Track 1
Filename C:\Documents and Settings\Hirsch\My Documents\New\01 – Lonesome Day.wav

Pre-gap length 0:00:02.00

Peak level 96.8 %
Track quality 100.0 %
Test CRC 3F71AC92
Copy CRC 3F71AC92
Copy OK

Track 2
Filename C:\Documents and Settings\Hirsch\My Documents\New\02 – Into The Fire.wav

Pre-gap length 0:00:02.40

Peak level 96.8 %
Track quality 100.0 %
Test CRC 7DB7E690
Copy CRC 7DB7E690
Copy OK

Track 3
Filename C:\Documents and Settings\Hirsch\My Documents\New\03 – Waitin’ On A Sunny Day.wav

Pre-gap length 0:00:02.55

Peak level 96.8 %
Track quality 100.0 %
Test CRC 772572A7
Copy CRC 772572A7
Copy OK

Track 4
Filename C:\Documents and Settings\Hirsch\My Documents\New\04 – Nothing Man.wav

Pre-gap length 0:00:02.38

Peak level 96.8 %
Track quality 100.0 %
Test CRC E4D5DD56
Copy CRC E4D5DD56
Copy OK

Track 5
Filename C:\Documents and Settings\Hirsch\My Documents\New\05 – Countin’ On A Miracle.wav

Pre-gap length 0:00:03.32

Peak level 96.8 %
Track quality 100.0 %
Test CRC 66A78A09
Copy CRC 66A78A09
Copy OK

Track 6
Filename C:\Documents and Settings\Hirsch\My Documents\New\06 – Empty Sky.wav

Pre-gap length 0:00:03.25

Peak level 96.8 %
Track quality 100.0 %
Test CRC B5E6467F
Copy CRC B5E6467F
Copy OK

Track 7
Filename C:\Documents and Settings\Hirsch\My Documents\New\07 – Worlds Apart.wav

Pre-gap length 0:00:02.13

Peak level 96.8 %
Track quality 100.0 %
Test CRC FC7602B0
Copy CRC FC7602B0
Copy OK

Track 8
Filename C:\Documents and Settings\Hirsch\My Documents\New\08 – Let’s Be Friends (Skin to Skin).wav

Pre-gap length 0:00:04.48

Peak level 96.8 %
Track quality 100.0 %
Test CRC 924D5C3C
Copy CRC 924D5C3C
Copy OK

Track 9
Filename C:\Documents and Settings\Hirsch\My Documents\New\09 – Further On Up The Road.wav

Pre-gap length 0:00:02.20

Peak level 96.7 %
Track quality 100.0 %
Test CRC 7974037B
Copy CRC 7974037B
Copy OK

Track 10
Filename C:\Documents and Settings\Hirsch\My Documents\New\10 – The Fuse.wav

Pre-gap length 0:00:02.35

Peak level 96.8 %
Track quality 100.0 %
Test CRC 8B828B0E
Copy CRC 8B828B0E
Copy OK

Track 11
Filename C:\Documents and Settings\Hirsch\My Documents\New\11 – Mary’s Place.wav

Pre-gap length 0:00:01.02

Peak level 97.8 %
Track quality 100.0 %
Test CRC FFD18EF8
Copy CRC FFD18EF8
Copy OK

Track 12
Filename C:\Documents and Settings\Hirsch\My Documents\New\12 – You’re Missing.wav

Pre-gap length 0:00:04.22

Peak level 96.6 %
Track quality 100.0 %
Test CRC 7B4EEAFA
Copy CRC 7B4EEAFA
Copy OK

Track 13
Filename C:\Documents and Settings\Hirsch\My Documents\New\13 – The Rising.wav

Pre-gap length 0:00:02.70

Peak level 96.8 %
Track quality 100.0 %
Test CRC C6B6ACC3
Copy CRC C6B6ACC3
Copy OK

Track 14
Filename C:\Documents and Settings\Hirsch\My Documents\New\14 – Paradise.wav

Pre-gap length 0:00:03.02

Peak level 89.6 %
Track quality 99.9 %
Test CRC 63668511
Copy CRC 63668511
Copy OK

Track 15
Filename C:\Documents and Settings\Hirsch\My Documents\New\15 – My City Of Ruins.wav

Pre-gap length 0:00:04.23

Peak level 96.7 %
Track quality 100.0 %
Test CRC 2B851EAB
Copy CRC 2B851EAB
Copy OK

No errors occured

End of status report

REM GENRE Rock
REM DATE 2002
REM DISCID CE11190F
REM COMMENT “ExactAudioCopy v0.95b4”
PERFORMER “Bruce Springsteen”
TITLE “The Rising”
FILE “01 – Lonesome Day.wav” WAVE
TRACK 01 AUDIO
TITLE “Lonesome Day”
PERFORMER “Bruce Springsteen”
INDEX 01 00:00:00
TRACK 02 AUDIO
TITLE “Into The Fire”
PERFORMER “Bruce Springsteen”
INDEX 00 04:05:57
FILE “02 – Into The Fire.wav” WAVE
INDEX 01 00:00:00
TRACK 03 AUDIO
TITLE “Waitin’ On A Sunny Day”
PERFORMER “Bruce Springsteen”
INDEX 00 05:01:68
FILE “03 – Waitin’ On A Sunny Day.wav” WAVE
INDEX 01 00:00:00
TRACK 04 AUDIO
TITLE “Nothing Man”
PERFORMER “Bruce Springsteen”
INDEX 00 04:16:27
FILE “04 – Nothing Man.wav” WAVE
INDEX 01 00:00:00
TRACK 05 AUDIO
TITLE “Countin’ On A Miracle”
PERFORMER “Bruce Springsteen”
INDEX 00 04:20:25
FILE “05 – Countin’ On A Miracle.wav” WAVE
INDEX 01 00:00:00
TRACK 06 AUDIO
TITLE “Empty Sky”
PERFORMER “Bruce Springsteen”
INDEX 00 04:40:58
FILE “06 – Empty Sky.wav” WAVE
INDEX 01 00:00:00
TRACK 07 AUDIO
TITLE “Worlds Apart”
PERFORMER “Bruce Springsteen”
INDEX 00 03:32:52
FILE “07 – Worlds Apart.wav” WAVE
INDEX 01 00:00:00
TRACK 08 AUDIO
TITLE “Let’s Be Friends (Skin to Skin)”
PERFORMER “Bruce Springsteen”
INDEX 00 06:02:62
FILE “08 – Let’s Be Friends (Skin to Skin).wav” WAVE
INDEX 01 00:00:00
TRACK 09 AUDIO
TITLE “Further On Up The Road”
PERFORMER “Bruce Springsteen”
INDEX 00 04:18:62
FILE “09 – Further On Up The Road.wav” WAVE
INDEX 01 00:00:00
TRACK 10 AUDIO
TITLE “The Fuse”
PERFORMER “Bruce Springsteen”
INDEX 00 03:50:30
FILE “10 – The Fuse.wav” WAVE
INDEX 01 00:00:00
TRACK 11 AUDIO
TITLE “Mary’s Place”
PERFORMER “Bruce Springsteen”
INDEX 00 05:36:43
FILE “11 – Mary’s Place.wav” WAVE
INDEX 01 00:00:00
TRACK 12 AUDIO
TITLE “You’re Missing”
PERFORMER “Bruce Springsteen”
INDEX 00 05:59:13
FILE “12 – You’re Missing.wav” WAVE
INDEX 01 00:00:00
TRACK 13 AUDIO
TITLE “The Rising”
PERFORMER “Bruce Springsteen”
INDEX 00 05:08:03
FILE “13 – The Rising.wav” WAVE
INDEX 01 00:00:00
TRACK 14 AUDIO
TITLE “Paradise”
PERFORMER “Bruce Springsteen”
INDEX 00 04:47:20
FILE “14 – Paradise.wav” WAVE
INDEX 01 00:00:00
TRACK 15 AUDIO
TITLE “My City Of Ruins”
PERFORMER “Bruce Springsteen”
INDEX 00 05:34:55
FILE “15 – My City Of Ruins.wav” WAVE
INDEX 01 00:00:00


Leave a Reply

Your email address will not be published. Required fields are marked *

This site uses Akismet to reduce spam. Learn how your comment data is processed.