Bruce Springsteen & The E Street Band – Live In New York City




No Cover available


Artist: Bruce Springsteen & The E Street Band
Year: 2001
Genre: Rock
Notes: Discogs
Add. Notes:
Watch Songs on: YouTube
Cover incl.: Yes
Encoder: FLAC
Bitrate: ~1000 kBit/s (44.1 kHz/16 Bit/s)
Log & Cue incl.: Yes/Yes
Size: 950,2 MB
Password: “slam” (without ” “)


All Downloads/Hosters are compatible

Download 1
KatFile.com
Turbobit.net
Rapidgator.net
FileFactory.com
Download 2
KatFile.com
Turbobit.net
Rapidgator.net
FileFactory.com

Tracklist:

1-01 My Love Will Not Let You Down 5:38
1-02 Prove It All Night 6:16
1-03 Two Hearts 4:29
1-04 Atlantic City 6:36
1-05 Mansion On The Hill 4:19
1-06 The River 11:16
1-07 Youngstown 6:16
1-08 Murder Incorporated 6:07
1-09 Badlands 5:43
1-10 Out In The Street 6:39
1-11 Born To Run 5:56

2-01 Tenth Avenue Freeze-Out 16:09
2-02 Land Of Hope And Dreams 9:46
2-03 American Skin (41 Shots) 7:45
Additional Performances:
2-04 Lost In The Flood 7:24
2-05 Born In The U.S.A. 5:46
2-06 Don't Look Back 3:19
2-07 Jungleland 10:54
2-08 Ramrod 6:28
2-09 If I Should Fall Behind 6:09 

EAC-Log, CUE-Sheed & NFO:

Click to open spoiler
Exact Audio Copy V0.99 prebeta 3 from 28. July 2007

EAC extraction logfile from 18. November 2007, 18:41

Bruce Springsteen & The E Street Band / Live In New York City (CD1)

Used drive : HL-DT-STDVD-ROM GDR8160B Adapter: 1 ID: 3

Read mode : Secure
Utilize accurate stream : Yes
Defeat audio cache : Yes
Make use of C2 pointers : No

Read offset correction : 102
Overread into Lead-In and Lead-Out : No
Fill up missing offset samples with silence : Yes
Delete leading and trailing silent blocks : No
Null samples used in CRC calculations : Yes
Used interface : Installed external ASPI interface
Gap handling : Appended to previous track

Used output format : User Defined Encoder
Selected bitrate : 96 kBit/s
Quality : High
Add ID3 tag : No
Command line compressor : C:\Program\FLAC\flac.exe
Additional command line options : -8 -A tukey(0.25) -A gauss(0.1875) -b 4096 -V -T “artist=%a” -T “title=%t” -T “album=%g” -T “date=%y” -T “tracknumber=%n” -T “genre=%m” %s –sector-align

TOC of the extracted CD

Track | Start | Length | Start sector | End sector
———————————————————
1 | 0:00.00 | 5:38.30 | 0 | 25379
2 | 5:38.30 | 6:16.15 | 25380 | 53594
3 | 11:54.45 | 4:29.22 | 53595 | 73791
4 | 16:23.67 | 6:36.23 | 73792 | 103514
5 | 23:00.15 | 4:19.20 | 103515 | 122959
6 | 27:19.35 | 11:15.70 | 122960 | 173654
7 | 38:35.30 | 6:16.15 | 173655 | 201869
8 | 44:51.45 | 6:07.27 | 201870 | 229421
9 | 50:58.72 | 5:42.68 | 229422 | 255139
10 | 56:41.65 | 6:39.12 | 255140 | 285076
11 | 63:21.02 | 5:56.65 | 285077 | 311841

Track 1

Filename G:\Bruce Springsteen & The E Street Band – Live In New York City – 2001 (FLAC)\Cd1\01 – My Love Will Not Let You Down.wav

Pre-gap length 0:00:02.00

Peak level 100.0 %
Track quality 100.0 %
Test CRC D0EFEBF9
Copy CRC D0EFEBF9
Accurately ripped (confidence 24) [69ECF0D0]
Copy OK

Track 2

Filename G:\Bruce Springsteen & The E Street Band – Live In New York City – 2001 (FLAC)\Cd1\02 – Prove It All Night.wav

Peak level 99.7 %
Track quality 100.0 %
Test CRC D9989198
Copy CRC D9989198
Accurately ripped (confidence 23) [32F8E7C4]
Copy OK

Track 3

Filename G:\Bruce Springsteen & The E Street Band – Live In New York City – 2001 (FLAC)\Cd1\03 – Two Hearts.wav

Peak level 100.0 %
Track quality 99.9 %
Test CRC CC68190A
Copy CRC CC68190A
Accurately ripped (confidence 23) [C3816BDA]
Copy OK

Track 4

Filename G:\Bruce Springsteen & The E Street Band – Live In New York City – 2001 (FLAC)\Cd1\04 – Atlantic City.wav

Peak level 99.4 %
Track quality 100.0 %
Test CRC BA5AD7C5
Copy CRC BA5AD7C5
Accurately ripped (confidence 23) [2CB86519]
Copy OK

Track 5

Filename G:\Bruce Springsteen & The E Street Band – Live In New York City – 2001 (FLAC)\Cd1\05 – Mansion On The Hill.wav

Peak level 98.9 %
Track quality 100.0 %
Test CRC 1E06281D
Copy CRC 1E06281D
Accurately ripped (confidence 23) [2D463B15]
Copy OK

Track 6

Filename G:\Bruce Springsteen & The E Street Band – Live In New York City – 2001 (FLAC)\Cd1\06 – The River.wav

Peak level 99.1 %
Track quality 100.0 %
Test CRC 820F1A2F
Copy CRC 820F1A2F
Accurately ripped (confidence 23) [2012C9D3]
Copy OK

Track 7

Filename G:\Bruce Springsteen & The E Street Band – Live In New York City – 2001 (FLAC)\Cd1\07 – Youngstown.wav

Peak level 100.0 %
Track quality 100.0 %
Test CRC 411141AE
Copy CRC 411141AE
Accurately ripped (confidence 23) [5D0A49D0]
Copy OK

Track 8

Filename G:\Bruce Springsteen & The E Street Band – Live In New York City – 2001 (FLAC)\Cd1\08 – Murder Incorporated.wav

Peak level 100.0 %
Track quality 100.0 %
Test CRC 0AF9ED9C
Copy CRC 0AF9ED9C
Accurately ripped (confidence 23) [99B2A3F8]
Copy OK

Track 9

Filename G:\Bruce Springsteen & The E Street Band – Live In New York City – 2001 (FLAC)\Cd1\09 – Badlands.wav

Peak level 100.0 %
Track quality 100.0 %
Test CRC 8E0A8319
Copy CRC 8E0A8319
Accurately ripped (confidence 23) [104E6EC4]
Copy OK

Track 10

Filename G:\Bruce Springsteen & The E Street Band – Live In New York City – 2001 (FLAC)\Cd1\10 – Out In The Street.wav

Peak level 100.0 %
Track quality 100.0 %
Test CRC 54A84CE7
Copy CRC 54A84CE7
Accurately ripped (confidence 23) [716673A8]
Copy OK

Track 11

Filename G:\Bruce Springsteen & The E Street Band – Live In New York City – 2001 (FLAC)\Cd1\11 – Born To Run.wav

Peak level 99.8 %
Track quality 100.0 %
Test CRC 2D322DB5
Copy CRC 2D322DB5
Accurately ripped (confidence 22) [CDBEA506]
Copy OK

All tracks accurately ripped

No errors occurred

End of status report

Exact Audio Copy V0.99 prebeta 3 from 28. July 2007

EAC extraction logfile from 18. November 2007, 18:41

Bruce Springsteen & The E Street Band / Live In New York City – CD 2

Used drive : Optiarc DVD RW AD-5170A Adapter: 1 ID: 2

Read mode : Secure
Utilize accurate stream : Yes
Defeat audio cache : Yes
Make use of C2 pointers : No

Read offset correction : 48
Overread into Lead-In and Lead-Out : No
Fill up missing offset samples with silence : Yes
Delete leading and trailing silent blocks : No
Null samples used in CRC calculations : Yes
Used interface : Installed external ASPI interface
Gap handling : Appended to previous track

Used output format : User Defined Encoder
Selected bitrate : 96 kBit/s
Quality : High
Add ID3 tag : No
Command line compressor : C:\Program\FLAC\flac.exe
Additional command line options : -8 -A tukey(0.25) -A gauss(0.1875) -b 4096 -V -T “artist=%a” -T “title=%t” -T “album=%g” -T “date=%y” -T “tracknumber=%n” -T “genre=%m” %s –sector-align

TOC of the extracted CD

Track | Start | Length | Start sector | End sector
———————————————————
1 | 0:00.00 | 16:08.52 | 0 | 72651
2 | 16:08.52 | 9:46.08 | 72652 | 116609
3 | 25:54.60 | 8:44.45 | 116610 | 155954
4 | 34:39.30 | 7:23.47 | 155955 | 189226
5 | 42:03.02 | 5:45.53 | 189227 | 215154
6 | 47:48.55 | 3:18.62 | 215155 | 230066
7 | 51:07.42 | 10:54.00 | 230067 | 279116
8 | 62:01.42 | 6:38.65 | 279117 | 309031
9 | 68:40.32 | 6:08.50 | 309032 | 336681

Track 1

Filename G:\Bruce Springsteen & The E Street Band – Live In New York City – 2001 (FLAC)\Cd2\01 – Tenth Avenue Freeze-Out (Live).wav

Pre-gap length 0:00:02.00

Peak level 100.0 %
Track quality 100.0 %
Test CRC B1189442
Copy CRC B1189442
Accurately ripped (confidence 21) [F2AD1274]
Copy OK

Track 2

Filename G:\Bruce Springsteen & The E Street Band – Live In New York City – 2001 (FLAC)\Cd2\02 – Land Of Hope And Dreams (Live).wav

Peak level 100.0 %
Track quality 99.9 %
Test CRC 9B7C5BBB
Copy CRC 9B7C5BBB
Accurately ripped (confidence 22) [D17B5F81]
Copy OK

Track 3

Filename G:\Bruce Springsteen & The E Street Band – Live In New York City – 2001 (FLAC)\Cd2\03 – American Skin (41 Shots) (Live).wav

Peak level 100.0 %
Track quality 100.0 %
Test CRC 4155811A
Copy CRC 4155811A
Accurately ripped (confidence 22) [94C58DAB]
Copy OK

Track 4

Filename G:\Bruce Springsteen & The E Street Band – Live In New York City – 2001 (FLAC)\Cd2\04 – Lost In The Flood (Live).wav

Pre-gap length 0:00:59.46

Peak level 98.7 %
Track quality 99.9 %
Test CRC BF4A9A07
Copy CRC BF4A9A07
Accurately ripped (confidence 22) [F7BEB406]
Copy OK

Track 5

Filename G:\Bruce Springsteen & The E Street Band – Live In New York City – 2001 (FLAC)\Cd2\05 – Born In The U.S.A. (Live).wav

Peak level 97.8 %
Track quality 100.0 %
Test CRC 8849800B
Copy CRC 8849800B
Accurately ripped (confidence 22) [524E90E3]
Copy OK

Track 6

Filename G:\Bruce Springsteen & The E Street Band – Live In New York City – 2001 (FLAC)\Cd2\06 – Don’t Look Back (Live).wav

Peak level 98.8 %
Track quality 100.0 %
Test CRC 1D1C32A6
Copy CRC 1D1C32A6
Accurately ripped (confidence 23) [2A159695]
Copy OK

Track 7

Filename G:\Bruce Springsteen & The E Street Band – Live In New York City – 2001 (FLAC)\Cd2\07 – Jungleland (Live).wav

Peak level 98.8 %
Track quality 100.0 %
Test CRC 96DD6D7F
Copy CRC 96DD6D7F
Accurately ripped (confidence 21) [7B281926]
Copy OK

Track 8

Filename G:\Bruce Springsteen & The E Street Band – Live In New York City – 2001 (FLAC)\Cd2\08 – Ramrod (Live).wav

Peak level 98.8 %
Track quality 100.0 %
Test CRC AB1DE5E6
Copy CRC AB1DE5E6
Accurately ripped (confidence 21) [DB36A20F]
Copy OK

Track 9

Filename G:\Bruce Springsteen & The E Street Band – Live In New York City – 2001 (FLAC)\Cd2\09 – If I Should Fall Behind (Live).wav

Pre-gap length 0:00:10.80

Peak level 94.9 %
Track quality 99.9 %
Test CRC 742E2BB3
Copy CRC 742E2BB3
Accurately ripped (confidence 21) [321DDED9]
Copy OK

All tracks accurately ripped

No errors occurred

End of status report

REM GENRE Rock
REM DATE 2001
REM DISCID 89103D0B
REM COMMENT “ExactAudioCopy v0.99pb3”
PERFORMER “Bruce Springsteen & The E Street Band”
TITLE “Live In New York City (CD1)”
FILE “01 – My Love Will Not Let You Down.wav” WAVE
TRACK 01 AUDIO
TITLE “My Love Will Not Let You Down”
PERFORMER “Bruce Springsteen & The E Street Band”
INDEX 01 00:00:00
FILE “02 – Prove It All Night.wav” WAVE
TRACK 02 AUDIO
TITLE “Prove It All Night”
PERFORMER “Bruce Springsteen & The E Street Band”
INDEX 01 00:00:00
FILE “03 – Two Hearts.wav” WAVE
TRACK 03 AUDIO
TITLE “Two Hearts”
PERFORMER “Bruce Springsteen & The E Street Band”
INDEX 01 00:00:00
FILE “04 – Atlantic City.wav” WAVE
TRACK 04 AUDIO
TITLE “Atlantic City”
PERFORMER “Bruce Springsteen & The E Street Band”
INDEX 01 00:00:00
FILE “05 – Mansion On The Hill.wav” WAVE
TRACK 05 AUDIO
TITLE “Mansion On The Hill”
PERFORMER “Bruce Springsteen & The E Street Band”
INDEX 01 00:00:00
FILE “06 – The River.wav” WAVE
TRACK 06 AUDIO
TITLE “The River”
PERFORMER “Bruce Springsteen & The E Street Band”
INDEX 01 00:00:00
FILE “07 – Youngstown.wav” WAVE
TRACK 07 AUDIO
TITLE “Youngstown”
PERFORMER “Bruce Springsteen & The E Street Band”
INDEX 01 00:00:00
FILE “08 – Murder Incorporated.wav” WAVE
TRACK 08 AUDIO
TITLE “Murder Incorporated”
PERFORMER “Bruce Springsteen & The E Street Band”
INDEX 01 00:00:00
FILE “09 – Badlands.wav” WAVE
TRACK 09 AUDIO
TITLE “Badlands”
PERFORMER “Bruce Springsteen & The E Street Band”
INDEX 01 00:00:00
FILE “10 – Out In The Street.wav” WAVE
TRACK 10 AUDIO
TITLE “Out In The Street”
PERFORMER “Bruce Springsteen & The E Street Band”
INDEX 01 00:00:00
FILE “11 – Born To Run.wav” WAVE
TRACK 11 AUDIO
TITLE “Born To Run”
PERFORMER “Bruce Springsteen & The E Street Band”
INDEX 01 00:00:00

REM GENRE Rock
REM DATE 2001
REM DISCID 77118909
REM COMMENT “ExactAudioCopy v0.99pb3”
PERFORMER “Bruce Springsteen & The E Street Band”
TITLE “Live In New York City – CD 2”
FILE “01 – Tenth Avenue Freeze-Out (Live).wav” WAVE
TRACK 01 AUDIO
TITLE “Tenth Avenue Freeze-Out (Live)”
PERFORMER “Bruce Springsteen & The E Street Band”
INDEX 01 00:00:00
FILE “02 – Land Of Hope And Dreams (Live).wav” WAVE
TRACK 02 AUDIO
TITLE “Land Of Hope And Dreams (Live)”
PERFORMER “Bruce Springsteen & The E Street Band”
INDEX 01 00:00:00
FILE “03 – American Skin (41 Shots) (Live).wav” WAVE
TRACK 03 AUDIO
TITLE “American Skin (41 Shots) (Live)”
PERFORMER “Bruce Springsteen & The E Street Band”
INDEX 01 00:00:00
TRACK 04 AUDIO
TITLE “Lost In The Flood (Live)”
PERFORMER “Bruce Springsteen & The E Street Band”
INDEX 00 07:45:10
FILE “04 – Lost In The Flood (Live).wav” WAVE
INDEX 01 00:00:00
FILE “05 – Born In The U.S.A. (Live).wav” WAVE
TRACK 05 AUDIO
TITLE “Born In The U.S.A. (Live)”
PERFORMER “Bruce Springsteen & The E Street Band”
INDEX 01 00:00:00
FILE “06 – Don’t Look Back (Live).wav” WAVE
TRACK 06 AUDIO
TITLE “Don’t Look Back (Live)”
PERFORMER “Bruce Springsteen & The E Street Band”
INDEX 01 00:00:00
FILE “07 – Jungleland (Live).wav” WAVE
TRACK 07 AUDIO
TITLE “Jungleland (Live)”
PERFORMER “Bruce Springsteen & The E Street Band”
INDEX 01 00:00:00
FILE “08 – Ramrod (Live).wav” WAVE
TRACK 08 AUDIO
TITLE “Ramrod (Live)”
PERFORMER “Bruce Springsteen & The E Street Band”
INDEX 01 00:00:00
TRACK 09 AUDIO
TITLE “If I Should Fall Behind (Live)”
PERFORMER “Bruce Springsteen & The E Street Band”
INDEX 00 06:28:05
FILE “09 – If I Should Fall Behind (Live).wav” WAVE
INDEX 01 00:00:00


Leave a Reply

Your email address will not be published. Required fields are marked *

Enter the text from the image below
 

This site uses Akismet to reduce spam. Learn how your comment data is processed.