Bruce Springsteen & The E Street Band – Hammersmith Odeon, London ’75




No Cover available

Artist: Bruce Springsteen & The E Street Band
Year: 2006
Genre: Rock
Notes: Discogs
Add. Notes:
Watch Songs on: YouTube
Cover incl.: Yes
Encoder: FLAC
Bitrate: ~900 kBit/s (44.1 kHz/16 Bit/s)
Log & Cue incl.: Yes/Yes
Size: 790,1 MB
Password: “slam” (without ” “)


All Downloads/Hosters are compatible

Download 1
KatFile.com
Turbobit.net
Rapidgator.net
FileFactory.com
Download 2
KatFile.com
Turbobit.net
Rapidgator.net
FileFactory.com

Tracklist:

1-1 Thunder Road 5:50
1-2 Tenth Avenue Freeze-Out 3:50
1-3 Spirit In The Night 7:35
1-4 Lost In The Flood 6:15
1-5 She's The One 5:23
1-6 Born To Run 4:16
1-7 The E Street Shuffle 12:51
1-8 It's Hard To Be A Saint In The City 5:27
1-9 Backstreets 7:22
2-1 Kitty's Back 17:14
2-2 Jungleland 9:35
2-3 Rosalita (Come Out Tonight) 9:51
2-4 4th Of July, Asbury Park (Sandy) 7:03
2-5 Detroit Medley 7:02
2-6 For You 8:26
2-7 Quarter To Three 6:44

EAC-Log, CUE-Sheed & NFO:

Click to open spoiler
REM GENRE RockExact Audio Copy V0.99 prebeta 4 from 23. January 2008

EAC extraction logfile from 1. October 2008, 19:46

Bruce Springsteen & The E Street Band / Hammersmith Odeon, London ’75 (Disc-1)

Used drive : _NEC DVD+-RW ND-3450A Adapter: 0 ID: 1

Read mode : Secure
Utilize accurate stream : Yes
Defeat audio cache : Yes
Make use of C2 pointers : No

Read offset correction : 48
Overread into Lead-In and Lead-Out : No
Fill up missing offset samples with silence : Yes
Delete leading and trailing silent blocks : No
Null samples used in CRC calculations : Yes
Used interface : Native Win32 interface for Win NT & 2000
Gap handling : Appended to previous track

Used output format : User Defined Encoder
Selected bitrate : 320 kBit/s
Quality : High
Add ID3 tag : No
Command line compressor : C:\Program Files\FLAC\flac.exe
Additional command line options : -V -8 -T “artist=%a” -T “title=%t” -T “album=%g” -T “date=%y” -T “tracknumber=%n” -T “genre=%m” %s

TOC of the extracted CD

Track | Start | Length | Start sector | End sector
———————————————————
1 | 0:00.00 | 5:50.36 | 0 | 26285
2 | 5:50.36 | 3:50.19 | 26286 | 43554
3 | 9:40.55 | 7:35.68 | 43555 | 77747
4 | 17:16.48 | 6:15.30 | 77748 | 105902
5 | 23:32.03 | 5:23.02 | 105903 | 130129
6 | 28:55.05 | 4:16.64 | 130130 | 149393
7 | 33:11.69 | 12:51.23 | 149394 | 207241
8 | 46:03.17 | 5:27.58 | 207242 | 231824
9 | 51:31.00 | 7:22.09 | 231825 | 264983

Track 1

Filename H:\Stuff\EAC\01 – Thunder Road.wav

Pre-gap length 0:00:02.00

Peak level 92.3 %
Track quality 100.0 %
Test CRC 18E9A879
Copy CRC 18E9A879
Accurately ripped (confidence 16) [85B61B75]
Copy OK

Track 2

Filename H:\Stuff\EAC\02 – Tenth Avenue Freeze-Out.wav

Peak level 100.0 %
Track quality 100.0 %
Test CRC 09566C8C
Copy CRC 09566C8C
Accurately ripped (confidence 16) [ED5302E4]
Copy OK

Track 3

Filename H:\Stuff\EAC\03 – Spirit In The Night.wav

Peak level 100.0 %
Track quality 99.9 %
Test CRC 93D65E86
Copy CRC 93D65E86
Accurately ripped (confidence 15) [8BA3FFA0]
Copy OK

Track 4

Filename H:\Stuff\EAC\04 – Lost In The Flood.wav

Peak level 100.0 %
Track quality 100.0 %
Test CRC F68EE1CB
Copy CRC F68EE1CB
Accurately ripped (confidence 15) [8A09811C]
Copy OK

Track 5

Filename H:\Stuff\EAC\05 – She’s The One.wav

Peak level 100.0 %
Track quality 100.0 %
Test CRC 5ED9DB4F
Copy CRC 5ED9DB4F
Accurately ripped (confidence 15) [B8348D1A]
Copy OK

Track 6

Filename H:\Stuff\EAC\06 – Born To Run.wav

Peak level 99.4 %
Track quality 100.0 %
Test CRC 6C5BF01A
Copy CRC 6C5BF01A
Accurately ripped (confidence 15) [31F1DB91]
Copy OK

Track 7

Filename H:\Stuff\EAC\07 – The E Street Shuffle , Having A Party.wav

Peak level 99.0 %
Track quality 100.0 %
Test CRC 2BD9F250
Copy CRC 2BD9F250
Accurately ripped (confidence 15) [948A9F64]
Copy OK

Track 8

Filename H:\Stuff\EAC\08 – It’s Hard To Be A Saint In The City.wav

Peak level 99.3 %
Track quality 100.0 %
Test CRC DA3607BF
Copy CRC DA3607BF
Accurately ripped (confidence 15) [70E98A85]
Copy OK

Track 9

Filename H:\Stuff\EAC\09 – Backstreets.wav

Peak level 100.0 %
Track quality 100.0 %
Test CRC F20DD1A3
Copy CRC F20DD1A3
Accurately ripped (confidence 14) [91B759DC]
Copy OK

All tracks accurately ripped

No errors occurred

End of status report

Exact Audio Copy V0.99 prebeta 4 from 23. January 2008

EAC extraction logfile from 1. October 2008, 20:26

Bruce Springsteen & The E Street Band / Hammersmith Odeon, London ’75 (Disc-2)

Used drive : _NEC DVD+-RW ND-3450A Adapter: 0 ID: 1

Read mode : Secure
Utilize accurate stream : Yes
Defeat audio cache : Yes
Make use of C2 pointers : No

Read offset correction : 48
Overread into Lead-In and Lead-Out : No
Fill up missing offset samples with silence : Yes
Delete leading and trailing silent blocks : No
Null samples used in CRC calculations : Yes
Used interface : Native Win32 interface for Win NT & 2000
Gap handling : Appended to previous track

Used output format : User Defined Encoder
Selected bitrate : 320 kBit/s
Quality : High
Add ID3 tag : No
Command line compressor : C:\Program Files\FLAC\flac.exe
Additional command line options : -V -8 -T “artist=%a” -T “title=%t” -T “album=%g” -T “date=%y” -T “tracknumber=%n” -T “genre=%m” %s

TOC of the extracted CD

Track | Start | Length | Start sector | End sector
———————————————————
1 | 0:00.00 | 17:14.32 | 0 | 77581
2 | 17:14.32 | 9:35.70 | 77582 | 120776
3 | 26:50.27 | 9:51.46 | 120777 | 165147
4 | 36:41.73 | 7:03.15 | 165148 | 196887
5 | 43:45.13 | 7:02.42 | 196888 | 228579
6 | 50:47.55 | 8:26.08 | 228580 | 266537
7 | 59:13.63 | 6:44.63 | 266538 | 296900

Track 1

Filename H:\Stuff\EAC\01 – Kitty’s Back.wav

Pre-gap length 0:00:02.00

Peak level 98.6 %
Track quality 100.0 %
Test CRC 321E2A47
Copy CRC 321E2A47
Accurately ripped (confidence 16) [9B36E434]
Copy OK

Track 2

Filename H:\Stuff\EAC\02 – Jungleland.wav

Peak level 100.0 %
Track quality 100.0 %
Test CRC E4040715
Copy CRC E4040715
Accurately ripped (confidence 16) [E53EA207]
Copy OK

Track 3

Filename H:\Stuff\EAC\03 – Rosalita (Come Out Tonight).wav

Peak level 100.0 %
Track quality 100.0 %
Test CRC AE8F12BE
Copy CRC AE8F12BE
Accurately ripped (confidence 16) [7565AB79]
Copy OK

Track 4

Filename H:\Stuff\EAC\04 – 4th Of July, Asbury Park (Sandy).wav

Peak level 100.0 %
Track quality 100.0 %
Test CRC BC3A0E21
Copy CRC BC3A0E21
Accurately ripped (confidence 16) [625D7B98]
Copy OK

Track 5

Filename H:\Stuff\EAC\05 – Detroit Medley.wav

Peak level 100.0 %
Track quality 100.0 %
Test CRC A4ED1821
Copy CRC A4ED1821
Accurately ripped (confidence 16) [D0661DD3]
Copy OK

Track 6

Filename H:\Stuff\EAC\06 – For You.wav

Peak level 96.8 %
Track quality 100.0 %
Test CRC 2ACB3423
Copy CRC 2ACB3423
Accurately ripped (confidence 16) [D8EC6597]
Copy OK

Track 7

Filename H:\Stuff\EAC\07 – Quarter To Three.wav

Peak level 100.0 %
Track quality 100.0 %
Test CRC 2199ED5C
Copy CRC 2199ED5C
Accurately ripped (confidence 13) [E3503D0C]
Copy OK

All tracks accurately ripped

No errors occurred

End of status report

EM GENRE Rock
REM DATE 2006
REM DISCID 7C0DCD09
REM COMMENT “ExactAudioCopy v0.99pb4”
PERFORMER “Bruce Springsteen & The E Street Band”
TITLE “Hammersmith Odeon, London ’75 (Disc-1)”
FILE “01 – Thunder Road.wav” WAVE
TRACK 01 AUDIO
TITLE “Thunder Road”
PERFORMER “Bruce Springsteen & The E Street Band”
INDEX 01 00:00:00
FILE “02 – Tenth Avenue Freeze-Out.wav” WAVE
TRACK 02 AUDIO
TITLE “Tenth Avenue Freeze-Out”
PERFORMER “Bruce Springsteen & The E Street Band”
INDEX 01 00:00:00
FILE “03 – Spirit In The Night.wav” WAVE
TRACK 03 AUDIO
TITLE “Spirit In The Night”
PERFORMER “Bruce Springsteen & The E Street Band”
INDEX 01 00:00:00
FILE “04 – Lost In The Flood.wav” WAVE
TRACK 04 AUDIO
TITLE “Lost In The Flood”
PERFORMER “Bruce Springsteen & The E Street Band”
INDEX 01 00:00:00
FILE “05 – She’s The One.wav” WAVE
TRACK 05 AUDIO
TITLE “She’s The One”
PERFORMER “Bruce Springsteen & The E Street Band”
INDEX 01 00:00:00
FILE “06 – Born To Run.wav” WAVE
TRACK 06 AUDIO
TITLE “Born To Run”
PERFORMER “Bruce Springsteen & The E Street Band”
INDEX 01 00:00:00
FILE “07 – The E Street Shuffle , Having A Party.wav” WAVE
TRACK 07 AUDIO
TITLE “The E Street Shuffle / Having A Party”
PERFORMER “Bruce Springsteen & The E Street Band”
INDEX 01 00:00:00
FILE “08 – It’s Hard To Be A Saint In The City.wav” WAVE
TRACK 08 AUDIO
TITLE “It’s Hard To Be A Saint In The City”
PERFORMER “Bruce Springsteen & The E Street Band”
INDEX 01 00:00:00
FILE “09 – Backstreets.wav” WAVE
TRACK 09 AUDIO
TITLE “Backstreets”
PERFORMER “Bruce Springsteen & The E Street Band”
INDEX 01 00:00:00

REM DATE 2006
REM DISCID 500F7607
REM COMMENT “ExactAudioCopy v0.99pb4”
PERFORMER “Bruce Springsteen & The E Street Band”
TITLE “Hammersmith Odeon, London ’75 (Disc-2)”
FILE “01 – Kitty’s Back.wav” WAVE
TRACK 01 AUDIO
TITLE “Kitty’s Back”
PERFORMER “Bruce Springsteen & The E Street Band”
INDEX 01 00:00:00
FILE “02 – Jungleland.wav” WAVE
TRACK 02 AUDIO
TITLE “Jungleland”
PERFORMER “Bruce Springsteen & The E Street Band”
INDEX 01 00:00:00
FILE “03 – Rosalita (Come Out Tonight).wav” WAVE
TRACK 03 AUDIO
TITLE “Rosalita (Come Out Tonight)”
PERFORMER “Bruce Springsteen & The E Street Band”
INDEX 01 00:00:00
FILE “04 – 4th Of July, Asbury Park (Sandy).wav” WAVE
TRACK 04 AUDIO
TITLE “4th Of July, Asbury Park (Sandy)”
PERFORMER “Bruce Springsteen & The E Street Band”
INDEX 01 00:00:00
FILE “05 – Detroit Medley.wav” WAVE
TRACK 05 AUDIO
TITLE “Detroit Medley”
PERFORMER “Bruce Springsteen & The E Street Band”
INDEX 01 00:00:00
FILE “06 – For You.wav” WAVE
TRACK 06 AUDIO
TITLE “For You”
PERFORMER “Bruce Springsteen & The E Street Band”
INDEX 01 00:00:00
FILE “07 – Quarter To Three.wav” WAVE
TRACK 07 AUDIO
TITLE “Quarter To Three”
PERFORMER “Bruce Springsteen & The E Street Band”
INDEX 01 00:00:00


Leave a Reply

Your email address will not be published. Required fields are marked *

Enter the text from the image below
 

This site uses Akismet to reduce spam. Learn how your comment data is processed.