Bruce Springsteen – Live In New York City (Remastered Japanese Edition)




No Cover available

Artist: Bruce Springsteen
Year: 2005
Genre: Rock
Notes: Discogs
Add. Notes: Remastered Japanese Edition
Watch Songs on: YouTube
Cover incl.: Yes
Encoder: FLAC
Bitrate: ~900 kBit/s (44.1 kHz/16 Bit/s)
Log & Cue incl.: Yes/Yes
Size: 953,4 MB
Password: “slam” (without ” “)


All Downloads/Hosters are compatible

Download 1
KatFile.com
Turbobit.net
Rapidgator.net
FileFactory.com
Download 2
KatFile.com
Turbobit.net
Rapidgator.net
FileFactory.com

Tracklist:

Disc 1
1 My Love Will Not Let You Down 5:38
2 Prove It All Night 6:16
3 Two Hearts 4:29
4 Atlantic City 6:36
5 Mansion On The Hill 4:19
6 The River 11:16
7 Youngstown 6:16
8 Murder Incorporated 6:07
9 Badlands 5:43
10 Out In The Street 6:39
11 Born To Run 5:56

Disc 2
1 Tenth Avenue Freeze-Out 16:09
2 Land Of Hope And Dreams 9:46
3 American Skin (41 Shots) 7:45
4 Lost In The Flood 7:24
5 Born In The U.S.A. 5:46
6 Don't Look Back 3:19
7 Jungleland 10:54
8 Ramrod 6:28
9 If I Should Fall Behind 6:09

EAC-Log, CUE-Sheed & NFO:

Click to open spoiler
EAC extraction logfile from 23. December 2007, 9:01 for CD
Bruce Springsteen & The E Street Band / Live In New York City (Disk1)

Used drive : SONY DVD RW DRU-830A Adapter: 0 ID: 0
Read mode : Secure with NO C2, accurate stream, disable cache
Read offset correction : 6
Overread into Lead-In and Lead-Out : No

Used output format : C:\Program Files\Exact Audio Copy\flac.exe (User Defined Encoder)
192 kBit/s
Additional command line options : -V -5 -T “artist=%a” -T “title=%t” -T “album=%g” -T “date=%y” -T “tracknumber=%n” -T “genre=%m” %s

Other options :
Fill up missing offset samples with silence : Yes
Delete leading and trailing silent blocks : No
Installed external ASPI interface

Track 1
Filename C:\Documents and Settings\Hirsch\My Documents\New\01 – My Love Will Not Let You Down.wav

Pre-gap length 0:00:02.00

Peak level 100.0 %
Track quality 99.9 %
Test CRC E333A851
Copy CRC E333A851
Copy OK

Track 2
Filename C:\Documents and Settings\Hirsch\My Documents\New\02 – Prove It All Night.wav

Peak level 99.7 %
Track quality 100.0 %
Test CRC 4D7A5907
Copy CRC 4D7A5907
Copy OK

Track 3
Filename C:\Documents and Settings\Hirsch\My Documents\New\03 – Two Hearts.wav

Peak level 100.0 %
Track quality 100.0 %
Test CRC 279227FF
Copy CRC 279227FF
Copy OK

Track 4
Filename C:\Documents and Settings\Hirsch\My Documents\New\04 – Atlantic City.wav

Peak level 99.4 %
Track quality 100.0 %
Test CRC C288EAAF
Copy CRC C288EAAF
Copy OK

Track 5
Filename C:\Documents and Settings\Hirsch\My Documents\New\05 – Mansion On The Hill.wav

Peak level 98.9 %
Track quality 100.0 %
Test CRC 285E4F1D
Copy CRC 285E4F1D
Copy OK

Track 6
Filename C:\Documents and Settings\Hirsch\My Documents\New\06 – The River.wav

Peak level 99.1 %
Track quality 100.0 %
Test CRC 43713638
Copy CRC 43713638
Copy OK

Track 7
Filename C:\Documents and Settings\Hirsch\My Documents\New\07 – Youngstown.wav

Peak level 100.0 %
Track quality 100.0 %
Test CRC 8887038A
Copy CRC 8887038A
Copy OK

Track 8
Filename C:\Documents and Settings\Hirsch\My Documents\New\08 – Murder Incorporated.wav

Peak level 100.0 %
Track quality 100.0 %
Test CRC BF498AA3
Copy CRC BF498AA3
Copy OK

Track 9
Filename C:\Documents and Settings\Hirsch\My Documents\New\09 – Badlands.wav

Peak level 100.0 %
Track quality 100.0 %
Test CRC 8CAE0D2C
Copy CRC 8CAE0D2C
Copy OK

Track 10
Filename C:\Documents and Settings\Hirsch\My Documents\New\10 – Out In The Street.wav

Peak level 100.0 %
Track quality 100.0 %
Test CRC 917CB6A5
Copy CRC 917CB6A5
Copy OK

Track 11
Filename C:\Documents and Settings\Hirsch\My Documents\New\11 – Born To Run.wav

Peak level 99.8 %
Track quality 100.0 %
Test CRC 6E2589F6
Copy CRC 6E2589F6
Copy OK

No errors occured

End of status report

EAC extraction logfile from 23. December 2007, 9:24 for CD
Bruce Springsteen & The E Street Band / Live In New York City (Disc2)

Used drive : SONY DVD RW DRU-830A Adapter: 0 ID: 0
Read mode : Secure with NO C2, accurate stream, disable cache
Read offset correction : 6
Overread into Lead-In and Lead-Out : No

Used output format : C:\Program Files\Exact Audio Copy\flac.exe (User Defined Encoder)
192 kBit/s
Additional command line options : -V -5 -T “artist=%a” -T “title=%t” -T “album=%g” -T “date=%y” -T “tracknumber=%n” -T “genre=%m” %s

Other options :
Fill up missing offset samples with silence : Yes
Delete leading and trailing silent blocks : No
Installed external ASPI interface

Track 1
Filename C:\Documents and Settings\Hirsch\My Documents\New\01 – Tenth Avenue Freeze-Out.wav

Pre-gap length 0:00:02.00

Peak level 100.0 %
Track quality 99.9 %
Test CRC AF5E9A8F
Copy CRC AF5E9A8F
Copy OK

Track 2
Filename C:\Documents and Settings\Hirsch\My Documents\New\02 – Land Of Hope And Dreams.wav

Peak level 100.0 %
Track quality 99.9 %
Test CRC AB0510CD
Copy CRC AB0510CD
Copy OK

Track 3
Filename C:\Documents and Settings\Hirsch\My Documents\New\03 – American Skin (41 Shots).wav

Peak level 100.0 %
Track quality 100.0 %
Test CRC F797FDE4
Copy CRC F797FDE4
Copy OK

Track 4
Filename C:\Documents and Settings\Hirsch\My Documents\New\04 – Lost In The Flood.wav

Pre-gap length 0:00:59.35

Peak level 98.7 %
Track quality 99.9 %
Test CRC E5E7E6C1
Copy CRC E5E7E6C1
Copy OK

Track 5
Filename C:\Documents and Settings\Hirsch\My Documents\New\05 – Born In The U.S.A..wav

Peak level 97.8 %
Track quality 99.9 %
Test CRC 1828C2B4
Copy CRC 1828C2B4
Copy OK

Track 6
Filename C:\Documents and Settings\Hirsch\My Documents\New\06 – Don’t Look Back.wav

Peak level 98.8 %
Track quality 99.9 %
Test CRC 66A51892
Copy CRC 66A51892
Copy OK

Track 7
Filename C:\Documents and Settings\Hirsch\My Documents\New\07 – Jungleland.wav

Peak level 98.8 %
Track quality 100.0 %
Test CRC D384B7AD
Copy CRC D384B7AD
Copy OK

Track 8
Filename C:\Documents and Settings\Hirsch\My Documents\New\08 – Ramrod.wav

Peak level 98.8 %
Track quality 100.0 %
Test CRC 0347691C
Copy CRC 0347691C
Copy OK

Track 9
Filename C:\Documents and Settings\Hirsch\My Documents\New\09 – If I Should Fall Behind.wav

Pre-gap length 0:00:10.60

Peak level 94.9 %
Track quality 100.0 %
Test CRC FBDBDFF1
Copy CRC FBDBDFF1
Copy OK

No errors occured

End of status report

REM GENRE Rock
REM DATE 2001
REM DISCID 89103F0B
REM COMMENT “ExactAudioCopy v0.95b4”
PERFORMER “Bruce Springsteen & The E Street Band”
TITLE “Live In New York City (Disk1)”
FILE “01 – My Love Will Not Let You Down.wav” WAVE
TRACK 01 AUDIO
TITLE “My Love Will Not Let You Down”
PERFORMER “Bruce Springsteen & The E Street Band”
INDEX 01 00:00:00
FILE “02 – Prove It All Night.wav” WAVE
TRACK 02 AUDIO
TITLE “Prove It All Night”
PERFORMER “Bruce Springsteen & The E Street Band”
INDEX 01 00:00:00
FILE “03 – Two Hearts.wav” WAVE
TRACK 03 AUDIO
TITLE “Two Hearts”
PERFORMER “Bruce Springsteen & The E Street Band”
INDEX 01 00:00:00
FILE “04 – Atlantic City.wav” WAVE
TRACK 04 AUDIO
TITLE “Atlantic City”
PERFORMER “Bruce Springsteen & The E Street Band”
INDEX 01 00:00:00
FILE “05 – Mansion On The Hill.wav” WAVE
TRACK 05 AUDIO
TITLE “Mansion On The Hill”
PERFORMER “Bruce Springsteen & The E Street Band”
INDEX 01 00:00:00
FILE “06 – The River.wav” WAVE
TRACK 06 AUDIO
TITLE “The River”
PERFORMER “Bruce Springsteen & The E Street Band”
INDEX 01 00:00:00
FILE “07 – Youngstown.wav” WAVE
TRACK 07 AUDIO
TITLE “Youngstown”
PERFORMER “Bruce Springsteen & The E Street Band”
INDEX 01 00:00:00
FILE “08 – Murder Incorporated.wav” WAVE
TRACK 08 AUDIO
TITLE “Murder Incorporated”
PERFORMER “Bruce Springsteen & The E Street Band”
INDEX 01 00:00:00
FILE “09 – Badlands.wav” WAVE
TRACK 09 AUDIO
TITLE “Badlands”
PERFORMER “Bruce Springsteen & The E Street Band”
INDEX 01 00:00:00
FILE “10 – Out In The Street.wav” WAVE
TRACK 10 AUDIO
TITLE “Out In The Street”
PERFORMER “Bruce Springsteen & The E Street Band”
INDEX 01 00:00:00
FILE “11 – Born To Run.wav” WAVE
TRACK 11 AUDIO
TITLE “Born To Run”
PERFORMER “Bruce Springsteen & The E Street Band”
INDEX 01 00:00:00

REM GENRE Rock
REM DATE 2001
REM DISCID 78118909
REM COMMENT “ExactAudioCopy v0.95b4”
PERFORMER “Bruce Springsteen & The E Street Band”
TITLE “Live In New York City (Disc2)”
FILE “01 – Tenth Avenue Freeze-Out.wav” WAVE
TRACK 01 AUDIO
TITLE “Tenth Avenue Freeze-Out”
PERFORMER “Bruce Springsteen & The E Street Band”
INDEX 01 00:00:00
FILE “02 – Land Of Hope And Dreams.wav” WAVE
TRACK 02 AUDIO
TITLE “Land Of Hope And Dreams”
PERFORMER “Bruce Springsteen & The E Street Band”
INDEX 01 00:00:00
FILE “03 – American Skin (41 Shots).wav” WAVE
TRACK 03 AUDIO
TITLE “American Skin (41 Shots)”
PERFORMER “Bruce Springsteen & The E Street Band”
INDEX 01 00:00:00
TRACK 04 AUDIO
TITLE “Lost In The Flood”
PERFORMER “Bruce Springsteen & The E Street Band”
INDEX 00 07:45:10
FILE “04 – Lost In The Flood.wav” WAVE
INDEX 01 00:00:00
FILE “05 – Born In The U.S.A..wav” WAVE
TRACK 05 AUDIO
TITLE “Born In The U.S.A.”
PERFORMER “Bruce Springsteen & The E Street Band”
INDEX 01 00:00:00
FILE “06 – Don’t Look Back.wav” WAVE
TRACK 06 AUDIO
TITLE “Don’t Look Back”
PERFORMER “Bruce Springsteen & The E Street Band”
INDEX 01 00:00:00
FILE “07 – Jungleland.wav” WAVE
TRACK 07 AUDIO
TITLE “Jungleland”
PERFORMER “Bruce Springsteen & The E Street Band”
INDEX 01 00:00:00
FILE “08 – Ramrod.wav” WAVE
TRACK 08 AUDIO
TITLE “Ramrod”
PERFORMER “Bruce Springsteen & The E Street Band”
INDEX 01 00:00:00
TRACK 09 AUDIO
TITLE “If I Should Fall Behind”
PERFORMER “Bruce Springsteen & The E Street Band”
INDEX 00 06:28:05
FILE “09 – If I Should Fall Behind.wav” WAVE
INDEX 01 00:00:00


Leave a Reply

Your email address will not be published. Required fields are marked *

Enter the text from the image below
 

This site uses Akismet to reduce spam. Learn how your comment data is processed.