Bruce Springsteen – Greetings from Asbury Park, N.J. (Remastered Japanese Edition)




No Cover available


Artist: Bruce Springsteen
Year: 1973/2005
Genre: Rock
Notes: Discogs
Add. Notes: Remastered Japanese Edition
Watch Songs on: YouTube
Cover incl.: Yes
Encoder: FLAC
Bitrate: ~900 kBit/s (44.1 kHz/16 Bit/s)
Log & Cue incl.: Yes/Yes
Size: 243,9 MB
Password: “slam” (without ” “)


All Downloads/Hosters are compatible

Download 1
KatFile.com
Turbobit.net
Rapidgator.net
FileFactory.com
Download 2
KatFile.com
Turbobit.net
Rapidgator.net
FileFactory.com

Tracklist:

1 Blinded By The Light 5:03
2 Growin' Up 3:05
3 Mary Queen Of Arkansas 5:21
4 Does This Bus Stop At 82nd Street? 2:05
5 Lost In The Flood 5:18
6 The Angel 3:24
7 For You 4:39
8 Spirit In The Night 5:00
9 It's Hard To Be A Saint In The City 3:14

EAC-Log, CUE-Sheed & NFO:

Click to open spoiler
EAC extraction logfile from 12. November 2007, 15:39 for CD
Bruce Springsteen / Greetings from Asbury Park, N.J.

Used drive : SONY DVD RW DRU-830A Adapter: 0 ID: 0
Read mode : Secure with NO C2, accurate stream, disable cache
Read offset correction : 6
Overread into Lead-In and Lead-Out : No

Used output format : C:\Program Files\Exact Audio Copy\flac.exe (User Defined Encoder)
192 kBit/s
Additional command line options : -V -5 -T “artist=%a” -T “title=%t” -T “album=%g” -T “date=%y” -T “tracknumber=%n” -T “genre=%m” %s

Other options :
Fill up missing offset samples with silence : Yes
Delete leading and trailing silent blocks : No
Installed external ASPI interface

Track 1
Filename C:\Documents and Settings\Hirsch\My Documents\New\01 – Blinded By The Light.wav

Pre-gap length 0:00:02.00

Peak level 99.9 %
Track quality 99.9 %
Test CRC EF48B0A7
Copy CRC EF48B0A7
Copy OK

Track 2
Filename C:\Documents and Settings\Hirsch\My Documents\New\02 – Growin’ Up.wav

Peak level 99.9 %
Track quality 100.0 %
Test CRC 4901EB47
Copy CRC 4901EB47
Copy OK

Track 3
Filename C:\Documents and Settings\Hirsch\My Documents\New\03 – Mary Queen Of Arkansas.wav

Peak level 99.9 %
Track quality 100.0 %
Test CRC ACBA687C
Copy CRC ACBA687C
Copy OK

Track 4
Filename C:\Documents and Settings\Hirsch\My Documents\New\04 – Does This Bus Stop At 82nd Street .wav

Peak level 99.9 %
Track quality 100.0 %
Test CRC BEE63447
Copy CRC BEE63447
Copy OK

Track 5
Filename C:\Documents and Settings\Hirsch\My Documents\New\05 – Lost In The Flood.wav

Peak level 99.9 %
Track quality 100.0 %
Test CRC AD17096A
Copy CRC AD17096A
Copy OK

Track 6
Filename C:\Documents and Settings\Hirsch\My Documents\New\06 – The Angel.wav

Peak level 99.9 %
Track quality 100.0 %
Test CRC 462733C5
Copy CRC 462733C5
Copy OK

Track 7
Filename C:\Documents and Settings\Hirsch\My Documents\New\07 – For You.wav

Peak level 99.9 %
Track quality 99.9 %
Test CRC 2459F8B7
Copy CRC 2459F8B7
Copy OK

Track 8
Filename C:\Documents and Settings\Hirsch\My Documents\New\08 – Spirit In The Night.wav

Peak level 99.9 %
Track quality 99.9 %
Test CRC 9FA61109
Copy CRC 9FA61109
Copy OK

Track 9
Filename C:\Documents and Settings\Hirsch\My Documents\New\09 – It’s Hard To Be A Saint In The City.wav

Peak level 99.9 %
Track quality 100.0 %
Test CRC 347C2158
Copy CRC 347C2158
Copy OK

No errors occured

End of status report

REM GENRE Rock
REM DATE 1973
REM DISCID 6208B909
REM COMMENT “ExactAudioCopy v0.95b4”
PERFORMER “Bruce Springsteen”
TITLE “Greetings from Asbury Park, N.J.”
FILE “01 – Blinded By The Light.wav” WAVE
TRACK 01 AUDIO
TITLE “Blinded By The Light”
PERFORMER “Bruce Springsteen”
INDEX 01 00:00:00
FILE “02 – Growin’ Up.wav” WAVE
TRACK 02 AUDIO
TITLE “Growin’ Up”
PERFORMER “Bruce Springsteen”
INDEX 01 00:00:00
FILE “03 – Mary Queen Of Arkansas.wav” WAVE
TRACK 03 AUDIO
TITLE “Mary Queen Of Arkansas”
PERFORMER “Bruce Springsteen”
INDEX 01 00:00:00
FILE “04 – Does This Bus Stop At 82nd Street .wav” WAVE
TRACK 04 AUDIO
TITLE “Does This Bus Stop At 82nd Street?”
PERFORMER “Bruce Springsteen”
INDEX 01 00:00:00
FILE “05 – Lost In The Flood.wav” WAVE
TRACK 05 AUDIO
TITLE “Lost In The Flood”
PERFORMER “Bruce Springsteen”
INDEX 01 00:00:00
FILE “06 – The Angel.wav” WAVE
TRACK 06 AUDIO
TITLE “The Angel”
PERFORMER “Bruce Springsteen”
INDEX 01 00:00:00
FILE “07 – For You.wav” WAVE
TRACK 07 AUDIO
TITLE “For You”
PERFORMER “Bruce Springsteen”
INDEX 01 00:00:00
FILE “08 – Spirit In The Night.wav” WAVE
TRACK 08 AUDIO
TITLE “Spirit In The Night”
PERFORMER “Bruce Springsteen”
INDEX 01 00:00:00
FILE “09 – It’s Hard To Be A Saint In The City.wav” WAVE
TRACK 09 AUDIO
TITLE “It’s Hard To Be A Saint In The City”
PERFORMER “Bruce Springsteen”
INDEX 01 00:00:00


0

Publication author

offline 7 days

Chaos

3
Comments: 4Publics: 3565Registration: 02-02-2019
Spread the Download

Leave a Reply

Your email address will not be published. Required fields are marked *

Enter the text from the image below
 

This site uses Akismet to reduce spam. Learn how your comment data is processed.