Bruce Springsteen – Darkness On The Edge Of Town




No Cover available

Artist: Bruce Springsteen
Year: 1978/2010
Genre: Rock
Notes: Discogs
Add. Notes:
Watch Songs on: YouTube
Cover incl.: Yes
Encoder: FLAC
Bitrate: ~900 kBit/s (44.1 kHz/16 Bit/s)
Log & Cue incl.: Yes/Yes
Size: 308 MB
Password: “slam” (without ” “)


All Downloads/Hosters are compatible

Download 1
KatFile.com
Turbobit.net
FileFactory.com
Rapidgator.net
Download 2
KatFile.com
Turbobit.net
FileFactory.com
Rapidgator.net

Tracklist:

1 Badlands 4:04
2 Adam Raised A Cain 4:35
3 Something In The Night 5:14
4 Candy's Room 2:48
5 Racing In The Street 6:55
6 The Promised Land 4:29
7 Factory 2:20
8 Streets Of Fire 4:03
9 Prove It All Night 4:01
10 Darkness On The Edge Of Town 4:28

EAC-Log, CUE-Sheed & NFO:

Click to open spoiler
Exact Audio Copy V1.0 beta 1 from 15. November 2010

EAC extraction logfile from 14. May 2011, 11:38

Bruce Springsteen / Darkness On The Edge Of Town

Used drive : HL-DT-STDVDRAM GSA-H60N Adapter: 2 ID: 0

Read mode : Secure
Utilize accurate stream : Yes
Defeat audio cache : Yes
Make use of C2 pointers : No

Read offset correction : 667
Overread into Lead-In and Lead-Out : No
Fill up missing offset samples with silence : Yes
Delete leading and trailing silent blocks : No
Null samples used in CRC calculations : Yes
Used interface : Native Win32 interface for Win NT & 2000

Used output format : Internal WAV Routines
Sample format : 44.100 Hz; 16 Bit; Stereo

TOC of the extracted CD

Track | Start | Length | Start sector | End sector
———————————————————
1 | 0:00.00 | 4:03.53 | 0 | 18277
2 | 4:03.53 | 4:34.50 | 18278 | 38877
3 | 8:38.28 | 5:14.11 | 38878 | 62438
4 | 13:52.39 | 2:48.35 | 62439 | 75073
5 | 16:40.74 | 6:54.67 | 75074 | 106190
6 | 23:35.66 | 4:28.74 | 106191 | 126364
7 | 28:04.65 | 2:19.66 | 126365 | 136855
8 | 30:24.56 | 4:03.41 | 136856 | 155121
9 | 34:28.22 | 4:01.15 | 155122 | 173211
10 | 38:29.37 | 4:28.43 | 173212 | 193354

Range status and errors

Selected range

Filename C:\Documents and Settings\Администратор\Рабочий стол\Rip by ALLexxess\2010 Bruce Springsteen Collection 1973 -1984 (8CD Box Set Sony Music)\1978 Darkness On The Edge Of Town\Bruce Springsteen – Darkness On The Edge Of Town.wav

Peak level 100.0 %
Extraction speed 0.6 X
Range quality 100.0 %
Test CRC 091299A8
Copy CRC 091299A8
Copy OK

No errors occurred

AccurateRip summary

Track 1 accurately ripped (confidence 8) [D61112F3]
Track 2 accurately ripped (confidence 7) [FF6453F9]
Track 3 accurately ripped (confidence 7) [65D4E038]
Track 4 accurately ripped (confidence 7) [DB6509A5]
Track 5 accurately ripped (confidence 7) [68759AF3]
Track 6 accurately ripped (confidence 7) [C0CA979E]
Track 7 accurately ripped (confidence 7) [7A9C7FE4]
Track 8 accurately ripped (confidence 7) [26E4EEC6]
Track 9 accurately ripped (confidence 7) [46796515]
Track 10 accurately ripped (confidence 7) [9C40C570]

All tracks accurately ripped

End of status report

==== Log checksum B747DE9218AC6B975DB3A3C912D4675F558B9078A8B2CAD19E9E41F633C9ED0F ====

REM GENRE “Rock / Pop Rock”
REM DATE 1978
REM DISCID 680A130A
REM COMMENT “ExactAudioCopy v1.0b1”
PERFORMER “Bruce Springsteen”
TITLE “Darkness On The Edge Of Town”
FILE “Bruce Springsteen – Darkness On The Edge Of Town.flac” WAVE
TRACK 01 AUDIO
TITLE “Badlands”
PERFORMER “Bruce Springsteen”
INDEX 01 00:00:00
TRACK 02 AUDIO
TITLE “Adam Raised A Cain”
PERFORMER “Bruce Springsteen”
INDEX 00 04:01:35
INDEX 01 04:03:53
TRACK 03 AUDIO
TITLE “Something In The Night”
PERFORMER “Bruce Springsteen”
INDEX 00 08:36:07
INDEX 01 08:38:28
TRACK 04 AUDIO
TITLE “Candy’s Room”
PERFORMER “Bruce Springsteen”
INDEX 00 13:50:25
INDEX 01 13:52:39
TRACK 05 AUDIO
TITLE “Racing In The Street”
PERFORMER “Bruce Springsteen”
INDEX 00 16:37:42
INDEX 01 16:40:74
TRACK 06 AUDIO
TITLE “The Promised Land”
PERFORMER “Bruce Springsteen”
INDEX 00 23:34:47
INDEX 01 23:35:66
TRACK 07 AUDIO
TITLE “Factory”
PERFORMER “Bruce Springsteen”
INDEX 00 28:03:40
INDEX 01 28:04:65
TRACK 08 AUDIO
TITLE “Streets Of Fire”
PERFORMER “Bruce Springsteen”
INDEX 00 30:22:12
INDEX 01 30:24:56
TRACK 09 AUDIO
TITLE “Prove It All Night”
PERFORMER “Bruce Springsteen”
INDEX 00 34:28:07
INDEX 01 34:28:22
TRACK 10 AUDIO
TITLE “Darkness On The Edge Of Town”
PERFORMER “Bruce Springsteen”
INDEX 00 38:25:12
INDEX 01 38:29:37


Leave a Reply

Your email address will not be published. Required fields are marked *

Enter the text from the image below
 

This site uses Akismet to reduce spam. Learn how your comment data is processed.