Bruce Springsteen – Born In The U.S.A.




No Cover available

Artist: Bruce Springsteen
Year: 1984/2010
Genre: Rock
Notes: Discogs
Add. Notes:
Watch Songs on: YouTube
Cover incl.: Yes
Encoder: FLAC
Bitrate: ~900 kBit/s (44.1 kHz/16 Bit/s)
Log & Cue incl.: Yes/Yes
Size: 344,2 MB
Password: “slam” (without ” “)


All Downloads/Hosters are compatible

Download 1
KatFile.com
Turbobit.net
FileFactory.com
Rapidgator.net
Download 2
KatFile.com
Turbobit.net
FileFactory.com
Rapidgator.net

Tracklist:

1 Born In The U.S.A. 4:39
2 Cover Me 3:29
3 Darlington County 4:50
4 Working On The Highway 3:16
5 Downbound Train 3:38
6 I'm On Fire 2:41
7 No Surrender 4:03
8 Bobby Jean 3:48
9 I'm Goin' Down 3:31
10 Glory Days 4:19
11 Dancing In The Dark 4:05
12 My Hometown 4:35

EAC-Log, CUE-Sheed & NFO:

Click to open spoiler
Exact Audio Copy V1.0 beta 1 from 15. November 2010

EAC extraction logfile from 14. May 2011, 21:19

Bruce Springsteen / Born In The U.S.A.

Used drive : HL-DT-STDVDRAM GSA-H60N Adapter: 2 ID: 0

Read mode : Secure
Utilize accurate stream : Yes
Defeat audio cache : Yes
Make use of C2 pointers : No

Read offset correction : 667
Overread into Lead-In and Lead-Out : No
Fill up missing offset samples with silence : Yes
Delete leading and trailing silent blocks : No
Null samples used in CRC calculations : Yes
Used interface : Native Win32 interface for Win NT & 2000

Used output format : Internal WAV Routines
Sample format : 44.100 Hz; 16 Bit; Stereo

TOC of the extracted CD

Track | Start | Length | Start sector | End sector
———————————————————
1 | 0:00.00 | 4:38.62 | 0 | 20911
2 | 4:38.62 | 3:29.34 | 20912 | 36620
3 | 8:08.21 | 4:49.54 | 36621 | 58349
4 | 12:58.00 | 3:16.00 | 58350 | 73049
5 | 16:14.00 | 3:37.55 | 73050 | 89379
6 | 19:51.55 | 2:41.20 | 89380 | 101474
7 | 22:33.00 | 4:02.58 | 101475 | 119682
8 | 26:35.58 | 3:48.17 | 119683 | 136799
9 | 30:24.00 | 3:31.00 | 136800 | 152624
10 | 33:55.00 | 4:19.20 | 152625 | 172069
11 | 38:14.20 | 4:04.55 | 172070 | 190424
12 | 42:19.00 | 4:35.00 | 190425 | 211049

Range status and errors

Selected range

Filename C:\Documents and Settings\Администратор\Рабочий стол\Rip by ALLexxess\2010 Bruce Springsteen Collection 1973 -1984 (8CD Box Set Sony Music)\1984 Born In The U.S.A\Bruce Springsteen – Born In The USA.wav

Peak level 95.6 %
Extraction speed 0.5 X
Range quality 100.0 %
Test CRC 43E84FBF
Copy CRC 43E84FBF
Copy OK

No errors occurred

AccurateRip summary

Track 1 accurately ripped (confidence 24) [D877A685]
Track 2 accurately ripped (confidence 25) [8C091B7F]
Track 3 accurately ripped (confidence 24) [7AE35BA7]
Track 4 accurately ripped (confidence 24) [9CC9814F]
Track 5 accurately ripped (confidence 25) [84EFCD09]
Track 6 accurately ripped (confidence 25) [22FF8089]
Track 7 accurately ripped (confidence 24) [78B93A8F]
Track 8 accurately ripped (confidence 24) [4E5104F4]
Track 9 accurately ripped (confidence 24) [03570906]
Track 10 accurately ripped (confidence 24) [10B9CD01]
Track 11 accurately ripped (confidence 24) [5BDF47EE]
Track 12 accurately ripped (confidence 25) [AEFE1329]

All tracks accurately ripped

End of status report

==== Log checksum 2323E6ED5C5402CD09C09E530685834EE79DAD34F213C1F57DBBC46D40750D5C ====

REM GENRE “Rock / Pop Rock”
REM DATE 1984
REM DISCID AC0AFE0C
REM COMMENT “ExactAudioCopy v1.0b1”
PERFORMER “Bruce Springsteen”
TITLE “Born In The U.S.A.”
FILE “Bruce Springsteen – Born In The USA.flac” WAVE
TRACK 01 AUDIO
TITLE “Born In The U.S.A.”
PERFORMER “Bruce Springsteen”
INDEX 01 00:00:00
TRACK 02 AUDIO
TITLE “Cover Me”
PERFORMER “Bruce Springsteen”
INDEX 01 04:38:62
TRACK 03 AUDIO
TITLE “Darlington County”
PERFORMER “Bruce Springsteen”
INDEX 00 08:07:05
INDEX 01 08:08:21
TRACK 04 AUDIO
TITLE “Working On The Highway”
PERFORMER “Bruce Springsteen”
INDEX 00 12:54:00
INDEX 01 12:58:00
TRACK 05 AUDIO
TITLE “Downbound Train”
PERFORMER “Bruce Springsteen”
INDEX 00 16:10:00
INDEX 01 16:14:00
TRACK 06 AUDIO
TITLE “I’m On Fire”
PERFORMER “Bruce Springsteen”
INDEX 01 19:51:55
TRACK 07 AUDIO
TITLE “No Surrender”
PERFORMER “Bruce Springsteen”
INDEX 00 22:26:00
INDEX 01 22:33:00
TRACK 08 AUDIO
TITLE “Bobby Jean”
PERFORMER “Bruce Springsteen”
INDEX 00 26:33:00
INDEX 01 26:35:58
TRACK 09 AUDIO
TITLE “I’m Goin’ Down”
PERFORMER “Bruce Springsteen”
INDEX 00 30:19:01
INDEX 01 30:24:00
TRACK 10 AUDIO
TITLE “Glory Days”
PERFORMER “Bruce Springsteen”
INDEX 00 33:52:00
INDEX 01 33:55:00
TRACK 11 AUDIO
TITLE “Dancing In The Dark”
PERFORMER “Bruce Springsteen”
INDEX 01 38:14:20
TRACK 12 AUDIO
TITLE “My Home Town”
PERFORMER “Bruce Springsteen”
INDEX 00 42:14:00
INDEX 01 42:19:00


Leave a Reply

Your email address will not be published. Required fields are marked *

Enter the text from the image below
 

This site uses Akismet to reduce spam. Learn how your comment data is processed.