Bring Me The Horizon – There Is A Hell Believe Me I’ve Seen It… (Japanese Edition)




Artist: Bring Me The Horizon
Year: 2010
Genre: Metal
Notes: Discogs
Add. Notes: Japanese Edition
Cover incl.: Yes
Encoder: FLAC
Bitrate: ~1000 kBit/s (44.1 kHz/16 Bit/s)
Log & Cue incl.: Yes
Size: 548,3 MB
Password: “slam” (without ” “)


All Downloads/Hosters are compatible

Download 1
KatFile.com
Rapidgator.net
Download 2
KatFile.com
Rapidgator.net

Tracklist:

1 Crucify Me 6:20
2 Anthem 4:50
3 It Never Ends 4:34
4 Fuck 4:55
5 Don't Go 5:00
6 Home Sweet Hole 4:38
7 Alligator Blood 4:32
8 Visions 4:09
9 Blacklist 4:00
10 Memorial 3:10
11 Blessed With A Curse 5:08
12 The Fox And The Wolf 1:43
13 Chelsea Smile 
14 Football Season Is Over 
15 The Sadness Will Never End

EAC-Log, CUE-Sheed & NFO:

Click to open spoiler
Exact Audio Copy V1.0 beta 3 from 29. August 2011

Отчёт EAC об извлечении, выполненном 24. января 2015, 23:11

Bring Me The Horizon / There Is A Hell, Believe Me I’ve Seen It. There Is A Heaven, Let’s Keep It A Secret

Дисковод: ASUS BW-12B1ST Adapter: 3 ID: 0

Режим чтения : Достоверность
Использование точного потока : Да
Отключение кэша аудио : Да
Использование указателей C2 : Нет

Коррекция смещения при чтении : 6
Способность читать области Lead-in и Lead-out : Нет
Заполнение пропущенных сэмплов тишиной : Да
Удаление блоков с тишиной в начале и конце : Нет
При вычислениях CRC использовались нулевые сэмплы : Да
Интерфейс : Встроенный Win32-интерфейс для Win NT/2000

Выходной формат : Внутренние WAV-операции
Формат сэмплов : 44.100 Гц; 16 бит; стерео

TOC извлечённого CD

Трек | Старт | Длительность | Начальный сектор | Конечный сектор
———————————————————————
1 | 0:00.00 | 6:19.32 | 0 | 28456
2 | 6:19.32 | 4:50.06 | 28457 | 50212
3 | 11:09.38 | 4:34.04 | 50213 | 70766
4 | 15:43.42 | 4:55.31 | 70767 | 92922
5 | 20:38.73 | 4:58.32 | 92923 | 115304
6 | 25:37.30 | 4:37.62 | 115305 | 136141
7 | 30:15.17 | 4:31.65 | 136142 | 156531
8 | 34:47.07 | 4:08.69 | 156532 | 175200
9 | 38:56.01 | 4:00.06 | 175201 | 193206
10 | 42:56.07 | 3:09.57 | 193207 | 207438
11 | 46:05.64 | 5:07.72 | 207439 | 230535
12 | 51:13.61 | 1:45.54 | 230536 | 238464
13 | 52:59.40 | 4:12.28 | 238465 | 257392
14 | 57:11.68 | 3:54.44 | 257393 | 274986
15 | 61:06.37 | 6:01.42 | 274987 | 302103

Характеристики диапазона извлечения и сообщения об ошибках

Выбранный диапазон

Имя файла D:\EAC\BRINGM~1.THE\Bring Me The Horizon – 2010 – There Is A Hell, Believe Me I’ve Seen It. There Is A Heaven, Let’s Keep It A Secret.wav

Пиковый уровень 100.0 %
Скорость извлечения 8.4 X
Качество диапазона 100.0 %
CRC теста 9336C5F5
CRC копии 9336C5F5
Копирование… OK

Ошибок не произошло

AccurateRip: сводка

Трек 1 : извлечено точно (доверие 1) [B00AC919] (AR v2)
Трек 2 : извлечено точно (доверие 1) [A8C1B0B6] (AR v2)
Трек 3 : извлечено точно (доверие 1) [9B2996BC] (AR v2)
Трек 4 : извлечено точно (доверие 1) [7768CFA3] (AR v2)
Трек 5 : извлечено точно (доверие 1) [0B063E1E] (AR v2)
Трек 6 : извлечено точно (доверие 1) [FAFEB029] (AR v2)
Трек 7 : извлечено точно (доверие 1) [9250416F] (AR v2)
Трек 8 : извлечено точно (доверие 1) [F0942755] (AR v2)
Трек 9 : извлечено точно (доверие 1) [D4339B63] (AR v2)
Трек 10 : извлечено точно (доверие 1) [948C32D0] (AR v2)
Трек 11 : извлечено точно (доверие 1) [DF30DC23] (AR v2)
Трек 12 : извлечено точно (доверие 1) [45649AD0] (AR v2)
Трек 13 : извлечено точно (доверие 1) [3BE31B5F] (AR v2)
Трек 14 : извлечено точно (доверие 1) [8AEECC6F] (AR v2)
Трек 15 : извлечено точно (доверие 1) [E48D72A6] (AR v2)

Все треки извлечены точно

Конец отчёта

==== Контрольная сумма отчёта BD3A3AF89AD86DE23FA48D0FE3D9C051A24A8A1903B1BF5CC04AD3033AD78FA8 ====

REM GENRE Metal
REM DATE 2010
REM DISCID E70FBC0F
REM COMMENT “ExactAudioCopy v1.0b3”
PERFORMER “Bring Me The Horizon”
TITLE “There Is A Hell, Believe Me I’ve Seen It. There Is A Heaven, Let’s Keep It A Secret”
FILE “Bring Me The Horizon – 2010 – There Is A Hell, Believe Me I’ve Seen It. There Is A Heaven, Let’s Keep It A Secret.flac” WAVE
TRACK 01 AUDIO
TITLE “Crucify Me”
PERFORMER “Bring Me The Horizon”
ISRC GBEGS1000004
INDEX 01 00:00:00
TRACK 02 AUDIO
TITLE “Anthem”
PERFORMER “Bring Me The Horizon”
ISRC GBEGS1000005
INDEX 01 06:19:32
TRACK 03 AUDIO
TITLE “It Never Ends”
PERFORMER “Bring Me The Horizon”
ISRC GBEGS1000006
INDEX 01 11:09:38
TRACK 04 AUDIO
TITLE “Fuck”
PERFORMER “Bring Me The Horizon”
ISRC GBEGS1000007
INDEX 00 15:42:62
INDEX 01 15:43:42
TRACK 05 AUDIO
TITLE “Don’t Go”
PERFORMER “Bring Me The Horizon”
ISRC GBEGS1000008
INDEX 01 20:38:73
TRACK 06 AUDIO
TITLE “Home Sweet Hole”
PERFORMER “Bring Me The Horizon”
ISRC GBEGS1000009
INDEX 01 25:37:30
TRACK 07 AUDIO
TITLE “Alligator Blood”
PERFORMER “Bring Me The Horizon”
ISRC GBEGS1000010
INDEX 00 30:13:58
INDEX 01 30:15:17
TRACK 08 AUDIO
TITLE “Visions”
PERFORMER “Bring Me The Horizon”
ISRC GBEGS1000011
INDEX 01 34:47:07
TRACK 09 AUDIO
TITLE “Blacklist”
PERFORMER “Bring Me The Horizon”
ISRC GBEGS1000012
INDEX 00 38:54:08
INDEX 01 38:56:01
TRACK 10 AUDIO
TITLE “Memorial”
PERFORMER “Bring Me The Horizon”
ISRC GBEGS1000013
INDEX 01 42:56:07
TRACK 11 AUDIO
TITLE “Blessed With a Curse”
PERFORMER “Bring Me The Horizon”
ISRC GBEGS1000014
INDEX 01 46:05:64
TRACK 12 AUDIO
TITLE “The Fox And The Wolf”
PERFORMER “Bring Me The Horizon”
ISRC GBEGS1000015
INDEX 00 51:11:74
INDEX 01 51:13:61
TRACK 13 AUDIO
TITLE “Chelsea Smile [K C Blitz Remix]”
PERFORMER “Bring Me The Horizon”
ISRC GBEGS0900183
INDEX 00 52:56:67
INDEX 01 52:59:40
TRACK 14 AUDIO
TITLE “Football Season Is Over [After The Night Remix]”
PERFORMER “Bring Me The Horizon”
ISRC GBEGS0900186
INDEX 00 57:10:19
INDEX 01 57:11:68
TRACK 15 AUDIO
TITLE “The Sadness Will Never End [Skrillex (aka Sonny) Remix]”
PERFORMER “Bring Me The Horizon”
ISRC GBEGS0900189
INDEX 01 61:06:37


Leave a Reply

Your email address will not be published. Required fields are marked *

This site uses Akismet to reduce spam. Learn how your comment data is processed.