Bring Me The Horizon – Suicide Season (Japanese Edition)




[Total: 0    Average: 0/5]

Artist: Bring Me The Horizon
Year: 2008/2009
Genre: Metal
Notes: Discogs
Add. Notes: Japanese Edition
Cover incl.: Yes
Encoder: FLAC
Bitrate: ~1000 kBit/s (44.1 kHz/16 Bit/s)
Log & Cue incl.: Yes
Size: 539 MB
Password: “slam” (without ” “)


All Downloads/Hosters are compatible

Download 1
KatFile.com
Turbobit.net
FileFactory.com
Rapidgator.net
Download 2
KatFile.com
Turbobit.net
FileFactory.com
Rapidgator.net

Tracklist:

1 - The Comedown - 4:09
2 - Chelsea Smile - 5:03
3 - It Was Written In Blood - 4:03
4 - Death Breath - 4:21
5 - Football Season Is Over - 1:56
6 - Sleep With One Eye Open - 4:16
7 - Diamonds Aren't Forever - 3:48
8 - The Sadness Will Never End - 
5:22
9 - No Need For Introductions, - 1:00
10 - Suicide Season - 8:17

Video1 - The Comedown
Video2 - The Comedown (Live In 
Vienna) 
Video3 - Chelsea Smile (Live In 
Vienna)

EAC-Log, CUE-Sheed & NFO:

Click to open spoiler
Exact Audio Copy V1.0 beta 3 from 29. August 2011

Отчёт EAC об извлечении, выполненном 24. января 2015, 13:58

Bring Me The Horizon / Suicide Season

Дисковод: ASUS BW-12B1ST Adapter: 3 ID: 0

Режим чтения : Достоверность
Использование точного потока : Да
Отключение кэша аудио : Да
Использование указателей C2 : Нет

Коррекция смещения при чтении : 6
Способность читать области Lead-in и Lead-out : Нет
Заполнение пропущенных сэмплов тишиной : Да
Удаление блоков с тишиной в начале и конце : Нет
При вычислениях CRC использовались нулевые сэмплы : Да
Интерфейс : Встроенный Win32-интерфейс для Win NT/2000

Выходной формат : Внутренние WAV-операции
Формат сэмплов : 44.100 Гц; 16 бит; стерео

TOC извлечённого CD

Трек | Старт | Длительность | Начальный сектор | Конечный сектор
———————————————————————
1 | 0:00.00 | 4:09.22 | 0 | 18696
2 | 4:09.22 | 5:02.42 | 18697 | 41388
3 | 9:11.64 | 4:02.51 | 41389 | 59589
4 | 13:14.40 | 4:20.53 | 59590 | 79142
5 | 17:35.18 | 1:55.58 | 79143 | 87825
6 | 19:31.01 | 4:16.21 | 87826 | 107046
7 | 23:47.22 | 3:48.05 | 107047 | 124151
8 | 27:35.27 | 5:22.27 | 124152 | 148328
9 | 32:57.54 | 0:59.49 | 148329 | 152802
10 | 33:57.28 | 8:17.21 | 152803 | 190098
11 | 44:46.49 | 19:22.25 | 201499 | 288673

Характеристики диапазона извлечения и сообщения об ошибках

Выбранный диапазон

Имя файла D:\EAC\Bring Me The Horizon – 2008 – Suicide Season (Japanese Edition) (BMG – BVCP-25174 (88697-44490-2))\Bring Me The Horizon – 2008 – Suicide Season.wav

Пиковый уровень 100.0 %
Скорость извлечения 7.5 X
Качество диапазона 100.0 %
CRC теста E40FBDC5
CRC копии E40FBDC5
Копирование… OK

Ошибок не произошло

AccurateRip: сводка

Трек 1 отсутствует в базе данных
Трек 2 отсутствует в базе данных
Трек 3 отсутствует в базе данных
Трек 4 отсутствует в базе данных
Трек 5 отсутствует в базе данных
Трек 6 отсутствует в базе данных
Трек 7 отсутствует в базе данных
Трек 8 отсутствует в базе данных
Трек 9 отсутствует в базе данных
Трек 10 отсутствует в базе данных

Ни одного трека нет в базе AccurateRip

Конец отчёта

==== Контрольная сумма отчёта F80943E4A0D7EA52C59BD95C6CD9D7FB1E2BB26D051ED506AEFFE470354D0427 ====

REM GENRE Metal
REM DATE 2008
REM DISCID A90F080B
REM COMMENT “ExactAudioCopy v1.0b3”
CATALOG 4988017667378
PERFORMER “Bring Me The Horizon”
TITLE “Suicide Season”
FILE “Bring Me The Horizon – 2008 – Suicide Season.flac” WAVE
TRACK 01 AUDIO
TITLE “The Comedown”
PERFORMER “Bring Me The Horizon”
ISRC GBEGS0800083
INDEX 01 00:00:00
TRACK 02 AUDIO
TITLE “Chelsea Smile”
PERFORMER “Bring Me The Horizon”
ISRC GBEGS0800084
INDEX 00 04:08:55
INDEX 01 04:09:22
TRACK 03 AUDIO
TITLE “It Was Written in Blood”
PERFORMER “Bring Me The Horizon”
ISRC GBEGS0800085
INDEX 00 09:10:26
INDEX 01 09:11:64
TRACK 04 AUDIO
TITLE “Death Breath”
PERFORMER “Bring Me The Horizon”
ISRC GBEGS0800086
INDEX 01 13:14:40
TRACK 05 AUDIO
TITLE “Football Season Is Over”
PERFORMER “Bring Me The Horizon”
ISRC GBEGS0800087
INDEX 00 17:34:26
INDEX 01 17:35:18
TRACK 06 AUDIO
TITLE “Sleep With One Eye Open”
PERFORMER “Bring Me The Horizon”
ISRC GBEGS0800088
INDEX 01 19:31:01
TRACK 07 AUDIO
TITLE “Diamonds Aren’t Forever”
PERFORMER “Bring Me The Horizon”
ISRC GBEGS0800089
INDEX 01 23:47:22
TRACK 08 AUDIO
TITLE “Sadness Will Never End”
PERFORMER “Bring Me The Horizon”
ISRC GBEGS0800090
INDEX 00 27:34:13
INDEX 01 27:35:27
TRACK 09 AUDIO
TITLE “No Need for Introductions, I’ve Read About Girls Like You on the Backs Of Toilet Doors”
PERFORMER “Bring Me The Horizon”
ISRC GBEGS0800091
INDEX 00 32:56:49
INDEX 01 32:57:54
TRACK 10 AUDIO
TITLE “Suicide Season”
PERFORMER “Bring Me The Horizon”
ISRC GBEGS0800093
INDEX 01 33:57:28


Spread the Download

Leave a Reply

Your email address will not be published. Required fields are marked *

Enter the text from the image below
 

This site uses Akismet to reduce spam. Learn how your comment data is processed.