Bring Me The Horizon – Suicide Season Cut Up! (Limited Edition)




[Total: 0    Average: 0/5]

Artist: Bring Me The Horizon
Year: 2009
Genre: Rock
Notes: Discogs
Add. Notes: Limited Edition
Cover incl.: Yes
Encoder: FLAC
Bitrate: ~1000 kBit/s (44.1 kHz/16 Bit/s)
Log & Cue incl.: Yes
Size: 819 MB
Password: “slam” (without ” “)


All Downloads/Hosters are compatible

Download 1
Share-online.biz
KatFile.com
Rapidgator.net
Mexa.sh
Download 2
Share-online.biz
KatFile.com
Rapidgator.net
Mexa.sh

Tracklist:

Disc 1 - Suicide Season
1 - The Comedown - 4:09
2 - Chelsea Smile - 5:03
3 - It Was Written In Blood - 4:03
4 - Death Breath - 4:21
5 - Football Season Is Over - 1:56
6 - Sleep With One Eye Open - 4:16
7 - Diamonds Aren't Forever - 3:48
8 - The Sadness Will Never End - 
5:22
9 - No Need For Introductions - 1:00
10 - Suicide Season - 8:17

Disc 2 - Suicide Season: Cut Up!
1 - The Comedown - 5:17
2 - Chelsea Smile - 4:12
3 - It Was Written In Blood - 4:58
4 - Death Breath - 4:33
5 - Football Season Is Over - 3:57
6 - Sleep With One Eye Open - 4:41
7 - Diamonds Aren't Forever - 3:55
8 - The Sadness Will Never End - 
6:03
9 - No Need For Introductions - 2:46
10 - Suicide Season - 2:56
11 - Football Season Is Over - 5:02
12 - Sleep With One Eye Open - 5:55
13 - Chelsea Smile - 3:42
14 - Suicide Season - 5:55

EAC-Log, CUE-Sheed & NFO:

Click to open spoiler
Exact Audio Copy V1.0 beta 3 from 29. August 2011

Отчёт EAC об извлечении, выполненном 8. января 2015, 20:40

Bring Me The Horizon / Cut Up

Дисковод: ASUS BW-12B1ST Adapter: 3 ID: 0

Режим чтения : Достоверность
Использование точного потока : Да
Отключение кэша аудио : Да
Использование указателей C2 : Нет

Коррекция смещения при чтении : 6
Способность читать области Lead-in и Lead-out : Нет
Заполнение пропущенных сэмплов тишиной : Да
Удаление блоков с тишиной в начале и конце : Нет
При вычислениях CRC использовались нулевые сэмплы : Да
Интерфейс : Встроенный Win32-интерфейс для Win NT/2000

Выходной формат : Внутренние WAV-операции
Формат сэмплов : 44.100 Гц; 16 бит; стерео

TOC извлечённого CD

Трек | Старт | Длительность | Начальный сектор | Конечный сектор
———————————————————————
1 | 0:00.00 | 5:17.29 | 0 | 23803
2 | 5:17.29 | 4:12.23 | 23804 | 42726
3 | 9:29.52 | 4:57.45 | 42727 | 65046
4 | 14:27.22 | 4:33.07 | 65047 | 85528
5 | 19:00.29 | 3:56.63 | 85529 | 103291
6 | 22:57.17 | 4:41.07 | 103292 | 124373
7 | 27:38.24 | 3:54.48 | 124374 | 141971
8 | 31:32.72 | 6:02.67 | 141972 | 169188
9 | 37:35.64 | 2:45.38 | 169189 | 181601
10 | 40:21.27 | 2:55.44 | 181602 | 194770
11 | 43:16.71 | 5:02.34 | 194771 | 217454
12 | 48:19.30 | 5:54.40 | 217455 | 244044
13 | 54:13.70 | 3:42.25 | 244045 | 260719
14 | 57:56.20 | 5:05.06 | 260720 | 283600
15 | 65:33.26 | 13:45.10 | 295001 | 356885

Характеристики диапазона извлечения и сообщения об ошибках

Выбранный диапазон

Имя файла D:\EAC\Bring Me The Horizon – 2008 – Suicide Season Cut Up! (Epitaph – 87051-2)\CD 2 – Cut Up\Bring Me The Horizon – 2009 – Cut Up.wav

Пиковый уровень 100.0 %
Скорость извлечения 3.7 X
Качество диапазона 100.0 %
CRC теста 37E17CD3
CRC копии 37E17CD3
Копирование… OK

Ошибок не произошло

AccurateRip: сводка

Трек 1 : извлечено точно (доверие 2) [98C663E4] (AR v2)
Трек 2 : извлечено точно (доверие 2) [27144503] (AR v2)
Трек 3 : извлечено точно (доверие 3) [DE338FD0] (AR v2)
Трек 4 : извлечено точно (доверие 3) [A15BFC73] (AR v2)
Трек 5 : извлечено точно (доверие 3) [F0C46AAF] (AR v2)
Трек 6 : извлечено точно (доверие 3) [E9AFB59C] (AR v2)
Трек 7 : извлечено точно (доверие 3) [505D530D] (AR v2)
Трек 8 : извлечено точно (доверие 3) [22BFF6AD] (AR v2)
Трек 9 : извлечено точно (доверие 3) [524F0C6A] (AR v2)
Трек 10 : извлечено точно (доверие 3) [9A80F084] (AR v2)
Трек 11 : извлечено точно (доверие 3) [B3BA291B] (AR v2)
Трек 12 : извлечено точно (доверие 3) [8046D96A] (AR v2)
Трек 13 : извлечено точно (доверие 3) [34BD229A] (AR v2)
Трек 14 : извлечено точно (доверие 3) [BC357D91] (AR v2)

Все треки извлечены точно

Конец отчёта

==== Контрольная сумма отчёта B95A375B2DC27287CE00275DFEB070A1BD560CC26E045FA85008C44CC4FC0194 ====

Exact Audio Copy V1.0 beta 3 from 29. August 2011

Отчёт EAC об извлечении, выполненном 8. января 2015, 19:58

Bring Me The Horizon / Suicide Season

Дисковод: ASUS BW-12B1ST Adapter: 3 ID: 0

Режим чтения : Достоверность
Использование точного потока : Да
Отключение кэша аудио : Да
Использование указателей C2 : Нет

Коррекция смещения при чтении : 6
Способность читать области Lead-in и Lead-out : Нет
Заполнение пропущенных сэмплов тишиной : Да
Удаление блоков с тишиной в начале и конце : Нет
При вычислениях CRC использовались нулевые сэмплы : Да
Интерфейс : Встроенный Win32-интерфейс для Win NT/2000

Выходной формат : Внутренние WAV-операции
Формат сэмплов : 44.100 Гц; 16 бит; стерео

TOC извлечённого CD

Трек | Старт | Длительность | Начальный сектор | Конечный сектор
———————————————————————
1 | 0:00.00 | 4:09.22 | 0 | 18696
2 | 4:09.22 | 5:02.42 | 18697 | 41388
3 | 9:11.64 | 4:02.51 | 41389 | 59589
4 | 13:14.40 | 4:20.53 | 59590 | 79142
5 | 17:35.18 | 1:55.58 | 79143 | 87825
6 | 19:31.01 | 4:16.21 | 87826 | 107046
7 | 23:47.22 | 3:48.05 | 107047 | 124151
8 | 27:35.27 | 5:22.27 | 124152 | 148328
9 | 32:57.54 | 0:59.49 | 148329 | 152802
10 | 33:57.28 | 8:17.21 | 152803 | 190098
11 | 44:46.49 | 19:46.36 | 201499 | 290484

Характеристики диапазона извлечения и сообщения об ошибках

Выбранный диапазон

Имя файла D:\EAC\Bring Me The Horizon – 2008 – Suicide Season Cut Up! (Epitaph – 87051-2)\CD 1 – Suicide Season\Bring Me The Horizon – 2008 – Suicide Season.wav

Пиковый уровень 100.0 %
Скорость извлечения 3.2 X
Качество диапазона 100.0 %
CRC теста 2D5D889A
CRC копии 2D5D889A
Копирование… OK

Ошибок не произошло

AccurateRip: сводка

Трек 1 : извлечено точно (доверие 2) [69D793D4] (AR v2)
Трек 2 : извлечено точно (доверие 2) [6BC79547] (AR v2)
Трек 3 : извлечено точно (доверие 2) [81630EE2] (AR v2)
Трек 4 : извлечено точно (доверие 2) [1AF5EDBC] (AR v2)
Трек 5 : извлечено точно (доверие 2) [9808E48A] (AR v2)
Трек 6 : извлечено точно (доверие 2) [74E7ECC4] (AR v2)
Трек 7 : извлечено точно (доверие 2) [249C1DFC] (AR v2)
Трек 8 : извлечено точно (доверие 2) [EE011496] (AR v2)
Трек 9 : извлечено точно (доверие 2) [01328C21] (AR v2)
Трек 10 : извлечено точно (доверие 2) [E1A48233] (AR v2)

Все треки извлечены точно

Конец отчёта

==== Контрольная сумма отчёта 726F05157065349A5FBB28FC04368D159C258B00A815873FB8A334F1051C980A ====

REM GENRE Metal
REM DATE 2008
REM DISCID A90F210B
REM COMMENT “ExactAudioCopy v1.0b3”
PERFORMER “Bring Me The Horizon”
TITLE “Suicide Season”
FILE “Bring Me The Horizon – 2008 – Suicide Season.flac” WAVE
TRACK 01 AUDIO
TITLE “The Comedown”
PERFORMER “Bring Me The Horizon”
ISRC GBEGS0800083
INDEX 01 00:00:00
TRACK 02 AUDIO
TITLE “Chelsea Smile”
PERFORMER “Bring Me The Horizon”
ISRC GBEGS0800084
INDEX 01 04:09:22
TRACK 03 AUDIO
TITLE “It Was Written In Blood”
PERFORMER “Bring Me The Horizon”
ISRC GBEGS0800085
INDEX 01 09:11:64
TRACK 04 AUDIO
TITLE “Death Breath”
PERFORMER “Bring Me The Horizon”
ISRC GBEGS0800086
INDEX 01 13:14:40
TRACK 05 AUDIO
TITLE “Football Season Is Over”
PERFORMER “Bring Me The Horizon”
ISRC GBEGS0800087
INDEX 01 17:35:18
TRACK 06 AUDIO
TITLE “Sleep With One Eye Open”
PERFORMER “Bring Me The Horizon”
ISRC GBEGS0800088
INDEX 01 19:31:01
TRACK 07 AUDIO
TITLE “Diamonds Aren’t Forever”
PERFORMER “Bring Me The Horizon”
ISRC GBEGS0800089
INDEX 01 23:47:22
TRACK 08 AUDIO
TITLE “The Sadness Will Never End”
PERFORMER “Bring Me The Horizon”
ISRC GBEGS0800090
INDEX 01 27:35:27
TRACK 09 AUDIO
TITLE “No Need For Introductions, I’ve Read About Girls Like You On The Backs Of Toilet Doors”
PERFORMER “Bring Me The Horizon”
ISRC GBEGS0800091
INDEX 01 32:57:54
TRACK 10 AUDIO
TITLE “Suicide Season”
PERFORMER “Bring Me The Horizon”
ISRC GBEGS0800093
INDEX 01 33:57:28

REM GENRE Metal
REM DATE 2009
REM DISCID EA12960F
REM COMMENT “ExactAudioCopy v1.0b3”
PERFORMER “Bring Me The Horizon”
TITLE “Cut Up”
FILE “Bring Me The Horizon – 2009 – Cut Up.flac” WAVE
TRACK 01 AUDIO
TITLE “The Comedown (Robotsonics Remix)”
PERFORMER “Bring Me The Horizon”
ISRC GBEGS0900182
INDEX 01 00:00:00
TRACK 02 AUDIO
TITLE “Chelsea Smile (K.C. Blitz Remix)”
PERFORMER “Bring Me The Horizon”
ISRC GBEGS0900183
INDEX 01 05:17:29
TRACK 03 AUDIO
TITLE “It Was Written In Blood (L’Amour La Morgue Remix)”
PERFORMER “Bring Me The Horizon”
ISRC GBEGS0900184
INDEX 01 09:29:52
TRACK 04 AUDIO
TITLE “Death Breath (Toxic Avenger Remix)”
PERFORMER “Bring Me The Horizon”
ISRC GBEGS0900185
INDEX 01 14:27:22
TRACK 05 AUDIO
TITLE “Football Season Is Over (After The Night Remix)”
PERFORMER “Bring Me The Horizon”
ISRC GBEGS0900186
INDEX 01 19:00:29
TRACK 06 AUDIO
TITLE “Sleep With One Eye Open (Tek-One Remix)”
PERFORMER “Bring Me The Horizon”
ISRC GBEGS0900187
INDEX 01 22:57:17
TRACK 07 AUDIO
TITLE “Diamonds Aren’t Forever (I Haunt Wizards Remix)”
PERFORMER “Bring Me The Horizon”
ISRC GBEGS0900188
INDEX 01 27:38:24
TRACK 08 AUDIO
TITLE “The Sadness Will Never End (Skrillex Remix)”
PERFORMER “Bring Me The Horizon”
ISRC GBEGS0900189
INDEX 01 31:32:72
TRACK 09 AUDIO
TITLE “No Need For Introductions, I’ve Read About Girls Like You On The Backs Of Toilet Doors (Ben Weinman Remix)”
PERFORMER “Bring Me The Horizon”
ISRC GBEGS0900190
INDEX 01 37:35:64
TRACK 10 AUDIO
TITLE “Suicide Season (The Secret Handshake Remix)”
PERFORMER “Bring Me The Horizon”
ISRC GBEGS0900191
INDEX 01 40:21:27
TRACK 11 AUDIO
TITLE “Football Season (Utah Saints Remix)”
PERFORMER “Bring Me The Horizon”
ISRC GBEGS0900192
INDEX 01 43:16:71
TRACK 12 AUDIO
TITLE “Sleep With One Eye Open (M. Shawn Crahan Remix)”
PERFORMER “Bring Me The Horizon”
ISRC GBEGS0900193
INDEX 01 48:19:30
TRACK 13 AUDIO
TITLE “Chelsea Smile (Travis McCoy Remix)”
PERFORMER “Bring Me The Horizon”
ISRC GBEGS0900194
INDEX 01 54:13:70
TRACK 14 AUDIO
TITLE “Suicide Seasion (Outcry Collective Remix)”
PERFORMER “Bring Me The Horizon”
ISRC GBEGS0900195
INDEX 01 57:56:20


Spread the Download

Leave a Reply

Your email address will not be published. Required fields are marked *

Enter the text from the image below
 

This site uses Akismet to reduce spam. Learn how your comment data is processed.