Bring Me The Horizon – Sempiternal (Japanese Edition)




[Total: 0    Average: 0/5]

Artist: Bring Me The Horizon
Year: 2013
Genre: Metal
Notes: Discogs
Add. Notes: Japanese Edition
Cover incl.: Yes
Encoder: FLAC
Bitrate: ~1000 kBit/s (44.1 kHz/16 Bit/s)
Log & Cue incl.: Yes
Size: 525 MB
Password: “slam” (without ” “)


All Downloads/Hosters are compatible

Download 1
KatFile.com
Turbobit.net
FileFactory.com
Rapidgator.net
Download 2
KatFile.com
Turbobit.net
FileFactory.com
Rapidgator.net

Tracklist:

1 - Can You Feel My Heart - 3:47
2 - The House Of Wolves - 3:25
3 - Empire (Let Them Sing) - 3:45
4 - Sleepwalking - 3:50
5 - Go To Hell, For Heaven's Sake - 
4:02
6 - Shadow Moses - 4:03
7 - And The Snakes Start To Sing - 
5:01
8 - Seen It All Before - 4:07
9 - Antivist - 3:13
10 - Crooked Young - 3:34
11 - Hospital For Souls - 6:44
Japan Bonus
12 - Join The Club 
13 - Deathbeds 
14 - Sleepwalking (Instrumental) 

EAC-Log, CUE-Sheed & NFO:

Click to open spoiler
Exact Audio Copy V1.0 beta 3 from 29. August 2011

Отчёт EAC об извлечении, выполненном 24. января 2015, 15:25

Bring Me The Horizon / Sempiternal

Дисковод: ASUS BW-12B1ST Adapter: 3 ID: 0

Режим чтения : Достоверность
Использование точного потока : Да
Отключение кэша аудио : Да
Использование указателей C2 : Нет

Коррекция смещения при чтении : 6
Способность читать области Lead-in и Lead-out : Нет
Заполнение пропущенных сэмплов тишиной : Да
Удаление блоков с тишиной в начале и конце : Нет
При вычислениях CRC использовались нулевые сэмплы : Да
Интерфейс : Встроенный Win32-интерфейс для Win NT/2000

Выходной формат : Внутренние WAV-операции
Формат сэмплов : 44.100 Гц; 16 бит; стерео

TOC извлечённого CD

Трек | Старт | Длительность | Начальный сектор | Конечный сектор
———————————————————————
1 | 0:00.00 | 3:48.11 | 0 | 17110
2 | 3:48.11 | 3:25.12 | 17111 | 32497
3 | 7:13.23 | 3:45.52 | 32498 | 49424
4 | 10:59.00 | 3:50.07 | 49425 | 66681
5 | 14:49.07 | 4:03.00 | 66682 | 84906
6 | 18:52.07 | 4:03.24 | 84907 | 103155
7 | 22:55.31 | 5:01.71 | 103156 | 125801
8 | 27:57.27 | 4:07.42 | 125802 | 144368
9 | 32:04.69 | 3:13.37 | 144369 | 158880
10 | 35:18.31 | 3:34.71 | 158881 | 175001
11 | 38:53.27 | 6:46.31 | 175002 | 205482
12 | 45:39.58 | 3:05.34 | 205483 | 219391
13 | 48:45.17 | 4:59.44 | 219392 | 241860
14 | 53:44.61 | 3:51.16 | 241861 | 259201

Характеристики диапазона извлечения и сообщения об ошибках

Выбранный диапазон

Имя файла D:\EAC\Bring Me The Horizon – 2013 – Sempiternal (Japanese Edition) (Sony Music Japan International – SICP-3796)\Bring Me The Horizon – 2013 – Sempiternal.wav

Пиковый уровень 100.0 %
Скорость извлечения 7.3 X
Качество диапазона 100.0 %
CRC теста B92AC539
CRC копии B92AC539
Копирование… OK

Ошибок не произошло

AccurateRip: сводка

Трек 1 отсутствует в базе данных
Трек 2 отсутствует в базе данных
Трек 3 отсутствует в базе данных
Трек 4 отсутствует в базе данных
Трек 5 отсутствует в базе данных
Трек 6 отсутствует в базе данных
Трек 7 отсутствует в базе данных
Трек 8 отсутствует в базе данных
Трек 9 отсутствует в базе данных
Трек 10 отсутствует в базе данных
Трек 11 отсутствует в базе данных
Трек 12 отсутствует в базе данных
Трек 13 отсутствует в базе данных
Трек 14 отсутствует в базе данных

Ни одного трека нет в базе AccurateRip

Конец отчёта

==== Контрольная сумма отчёта 6E4B964C279548C15D147C612D4012E8E8DA21AFC7AD0E88E11C8E714F5BD061 ====

REM GENRE Metal
REM DATE 2013
REM DISCID B70D800E
REM COMMENT “ExactAudioCopy v1.0b3”
PERFORMER “Bring Me The Horizon”
TITLE “Sempiternal”
FILE “Bring Me The Horizon – 2013 – Sempiternal.flac” WAVE
TRACK 01 AUDIO
TITLE “Can You Feel My Heart”
PERFORMER “Bring Me The Horizon”
ISRC GBARL1202415
INDEX 01 00:00:00
TRACK 02 AUDIO
TITLE “The House of Wolves”
PERFORMER “Bring Me The Horizon”
ISRC GBARL1202416
INDEX 01 03:48:11
TRACK 03 AUDIO
TITLE “Empire (Let Them Sing)”
PERFORMER “Bring Me The Horizon”
ISRC GBARL1202417
INDEX 01 07:13:23
TRACK 04 AUDIO
TITLE “S;eepwalking”
PERFORMER “Bring Me The Horizon”
ISRC GBARL1202418
INDEX 01 10:59:00
TRACK 05 AUDIO
TITLE “Go to Hell, for Heaven’s Sake”
PERFORMER “Bring Me The Horizon”
ISRC GBARL1202421
INDEX 01 14:49:07
TRACK 06 AUDIO
TITLE “Shadow Moses”
PERFORMER “Bring Me The Horizon”
ISRC GBARL1202153
INDEX 01 18:52:07
TRACK 07 AUDIO
TITLE “And The Snakes Start to Sing”
PERFORMER “Bring Me The Horizon”
ISRC GBARL1202422
INDEX 01 22:55:31
TRACK 08 AUDIO
TITLE “Seen It all Before”
PERFORMER “Bring Me The Horizon”
ISRC GBARL1202419
INDEX 01 27:57:27
TRACK 09 AUDIO
TITLE “Antivist”
PERFORMER “Bring Me The Horizon”
ISRC GBARL1202420
INDEX 01 32:04:69
TRACK 10 AUDIO
TITLE “Krooked Young”
PERFORMER “Bring Me The Horizon”
ISRC GBARL1202423
INDEX 01 35:18:31
TRACK 11 AUDIO
TITLE “Hospital for Souls”
PERFORMER “Bring Me The Horizon”
ISRC GBARL1202424
INDEX 01 38:53:27
TRACK 12 AUDIO
TITLE “Join The Club”
PERFORMER “Bring Me The Horizon”
ISRC GBARL1202464
INDEX 01 45:39:58
TRACK 13 AUDIO
TITLE “Deathbeds”
PERFORMER “Bring Me The Horizon”
ISRC GBARL1202466
INDEX 01 48:45:17
TRACK 14 AUDIO
TITLE “Sleepwalking (Instrumental)”
PERFORMER “Bring Me The Horizon”
ISRC GBARL1300308
INDEX 01 53:44:61


Spread the Download

Leave a Reply

Your email address will not be published. Required fields are marked *

Enter the text from the image below
 

This site uses Akismet to reduce spam. Learn how your comment data is processed.