Bring Me The Horizon – Live at Wembley




Artist: Bring Me The Horizon
Year: 2015
Genre: Metal
Notes: Discogs
Add. Notes:
Cover incl.: Yes
Encoder: FLAC
Bitrate: ~900 kBit/s (44.1 kHz/16 Bit/s)
Log & Cue incl.: Yes
Size: 747 MB
Password: “slam” (without ” “)


All Downloads/Hosters are compatible

Download 1
KatFile.com
Rapidgator.net
Download 2
KatFile.com
Rapidgator.net

Tracklist:

CD1-1. Shadow Moses
CD1-2. Go To Hell For Heaven's Sake
CD1-3. The House Of Wolves
CD1-4. Diamonds Aren't Forever
CD1-5. It Never Ends
CD1-6. And The Snakes Start To Sing
CD1-7. Alligator Blood
CD1-8. Empire (Let Them Sing)

CD2-9. Chelsea Smile
CD2-10. Pray For Plague
CD2-11. Blessed With A Curse
CD2-12. Antivist
CD2-13. Sleepwalking
CD2-14. Hospital For Souls
CD2-15. Drown
CD2-16. Can You Feel My Heart 

EAC-Log, CUE-Sheed & NFO:

Click to open spoiler
Exact Audio Copy V1.0 beta 6 from 9. April 2015

????? EAC ?? ??????????, ??????????? 16. ???? 2015, 22:04

Bring Me The Horizon / Live at Wembley (CD1)

????????: ASUS BW-12B1ST Adapter: 1 ID: 0

????? ?????? : ?????????????
????????????? ??????? ?????? : ??
?????????? ???? ????? : ??
????????????? ?????????? C2 : ???

????????? ???????? ??? ?????? : 6
??????????? ?????? ??????? Lead-in ? Lead-out : ???
?????????? ??????????? ??????? ??????? : ??
???????? ?????? ? ??????? ? ?????? ? ????? : ???
??? ??????????? CRC ?????????????? ??????? ?????? : ??
????????? : ?????????? Win32-????????? ??? Win NT/2000

???????? ?????? : ?????????? WAV-????????
?????? ??????? : 44.100 ??; 16 ???; ??????

TOC ???????????? CD

???? | ????? | ???????????? | ????????? ?????? | ???????? ??????
———————————————————————
1 | 0:00.00 | 0:30.00 | 0 | 2249
2 | 0:30.00 | 4:53.55 | 2250 | 24279
3 | 5:23.55 | 4:20.59 | 24280 | 43838
4 | 9:44.39 | 4:27.25 | 43839 | 63888
5 | 14:11.64 | 5:01.60 | 63889 | 86523
6 | 19:13.49 | 5:53.70 | 86524 | 113068
7 | 25:07.44 | 5:57.14 | 113069 | 139857
8 | 31:04.58 | 5:14.65 | 139858 | 163472
9 | 36:19.48 | 3:59.69 | 163473 | 181466

?????????????? ????????? ?????????? ? ????????? ?? ???????

????????? ????????

??? ????? D:\EAC\Bring Me The Horizon – 2015 – Live at Wembley (Live Here Now – LHN002CD)\CD 1\Bring Me The Horizon – 2015 – Live at Wembley.wav

??????? ??????? 100.0 %
???????? ?????????? 3.0 X
???????? ????????? 100.0 %
CRC ????? 3CAA9B71
CRC ????? 3CAA9B71
???????????… OK

?????? ?? ?????????

AccurateRip: ??????

???? 1 ??????????? ? ???? ??????
???? 2 ??????????? ? ???? ??????
???? 3 ??????????? ? ???? ??????
???? 4 ??????????? ? ???? ??????
???? 5 ??????????? ? ???? ??????
???? 6 ??????????? ? ???? ??????
???? 7 ??????????? ? ???? ??????
???? 8 ??????????? ? ???? ??????
???? 9 ??????????? ? ???? ??????

?? ?????? ????? ??? ? ???? AccurateRip

????? ??????

—- CUETools DB Plugin V2.1.6

[CTDB TOCID: KbgBxwA7oMtYElGLp9lhFg9b2tM-] found
Submit result: KbgBxwA7oMtYElGLp9lhFg9b2tM- has been confirmed
Track | CTDB Status
1 | (1/1) Accurately ripped
2 | (1/1) Accurately ripped
3 | (1/1) Accurately ripped
4 | (1/1) Accurately ripped
5 | (1/1) Accurately ripped
6 | (1/1) Accurately ripped
7 | (1/1) Accurately ripped
8 | (1/1) Accurately ripped
9 | (1/1) Accurately ripped

==== ??????????? ????? ?????? 048F02C970B7842DC32FC4C035EB8229251E56326C12C01CAE9418BC388021D2 ====

Exact Audio Copy V1.0 beta 6 from 9. April 2015

????? EAC ?? ??????????, ??????????? 16. ???? 2015, 22:45

Bring Me The Horizon / Live at Wembley (CD2)

????????: ASUS BW-12B1ST Adapter: 1 ID: 0

????? ?????? : ?????????????
????????????? ??????? ?????? : ??
?????????? ???? ????? : ??
????????????? ?????????? C2 : ???

????????? ???????? ??? ?????? : 6
??????????? ?????? ??????? Lead-in ? Lead-out : ???
?????????? ??????????? ??????? ??????? : ??
???????? ?????? ? ??????? ? ?????? ? ????? : ???
??? ??????????? CRC ?????????????? ??????? ?????? : ??
????????? : ?????????? Win32-????????? ??? Win NT/2000

???????? ?????? : ?????????? WAV-????????
?????? ??????? : 44.100 ??; 16 ???; ??????

TOC ???????????? CD

???? | ????? | ???????????? | ????????? ?????? | ???????? ??????
———————————————————————
1 | 0:00.00 | 6:41.13 | 0 | 30087
2 | 6:41.13 | 5:12.50 | 30088 | 53537
3 | 11:53.63 | 5:27.59 | 53538 | 78121
4 | 17:21.47 | 4:02.20 | 78122 | 96291
5 | 21:23.67 | 5:41.50 | 96292 | 121916
6 | 27:05.42 | 7:01.55 | 121917 | 153546
7 | 34:07.22 | 4:22.53 | 153547 | 173249
8 | 38:30.00 | 7:30.72 | 173250 | 207071

?????????????? ????????? ?????????? ? ????????? ?? ???????

????????? ????????

??? ????? D:\EAC\Bring Me The Horizon – 2015 – Live at Wembley (Live Here Now – LHN002CD)\CD 2\Bring Me The Horizon – 2015 – Live at Wembley.wav

??????? ??????? 100.0 %
???????? ?????????? 3.1 X
???????? ????????? 100.0 %
CRC ????? 0ADDB6E3
CRC ????? 0ADDB6E3
???????????… OK

?????? ?? ?????????

AccurateRip: ??????

???? 1 ??????????? ? ???? ??????
???? 2 ??????????? ? ???? ??????
???? 3 ??????????? ? ???? ??????
???? 4 ??????????? ? ???? ??????
???? 5 ??????????? ? ???? ??????
???? 6 ??????????? ? ???? ??????
???? 7 ??????????? ? ???? ??????
???? 8 ??????????? ? ???? ??????

?? ?????? ????? ??? ? ???? AccurateRip

????? ??????

—- CUETools DB Plugin V2.1.6

[CTDB TOCID: X6ClLox4iVCm4kxVJaMt8a.9wu0-] found
Submit result: X6ClLox4iVCm4kxVJaMt8a.9wu0- has been confirmed
Track | CTDB Status
1 | (1/1) Accurately ripped
2 | (1/1) Accurately ripped
3 | (1/1) Accurately ripped
4 | (1/1) Accurately ripped
5 | (1/1) Accurately ripped
6 | (1/1) Accurately ripped
7 | (1/1) Accurately ripped
8 | (1/1) Accurately ripped

==== ??????????? ????? ?????? 750DBFC04C3E930023835987424C7F36B41AC503D08BD6FD5CDC6D8E7208342B ====

REM GENRE Metalcore
REM DATE 2015
REM DISCID 70097309
REM COMMENT “ExactAudioCopy v1.0b6”
PERFORMER “Bring Me The Horizon”
TITLE “Live at Wembley”
FILE “Bring Me The Horizon – 2015 – Live at Wembley.flac” WAVE
TRACK 01 AUDIO
TITLE “Intro”
PERFORMER “Bring Me The Horizon”
INDEX 01 00:00:00
TRACK 02 AUDIO
TITLE “Shadow Moses”
PERFORMER “Bring Me The Horizon”
INDEX 01 00:30:00
TRACK 03 AUDIO
TITLE “Go to Hell, for Heaven’s Sake”
PERFORMER “Bring Me The Horizon”
INDEX 01 05:23:55
TRACK 04 AUDIO
TITLE “The House Of Wolves”
PERFORMER “Bring Me The Horizon”
INDEX 01 09:44:39
TRACK 05 AUDIO
TITLE “Diamonds Aren’t Forever”
PERFORMER “Bring Me The Horizon”
INDEX 01 14:11:64
TRACK 06 AUDIO
TITLE “It Never Ends”
PERFORMER “Bring Me The Horizon”
INDEX 01 19:13:49
TRACK 07 AUDIO
TITLE “And The Snakes Start to Sing”
PERFORMER “Bring Me The Horizon”
INDEX 01 25:07:44
TRACK 08 AUDIO
TITLE “Alligator Blood”
PERFORMER “Bring Me The Horizon”
INDEX 01 31:04:58
TRACK 09 AUDIO
TITLE “Empire (Let Them Sing)”
PERFORMER “Bring Me The Horizon”
INDEX 01 36:19:48

REM GENRE Metalcore
REM DATE 2015
REM DISCID 550AC808
REM COMMENT “ExactAudioCopy v1.0b6”
PERFORMER “Bring Me The Horizon”
TITLE “Live at Wembley”
FILE “Bring Me The Horizon – 2015 – Live at Wembley.flac” WAVE
TRACK 01 AUDIO
TITLE “Chelsea Smile”
PERFORMER “Bring Me The Horizon”
INDEX 01 00:00:00
TRACK 02 AUDIO
TITLE “Pray for Plague”
PERFORMER “Bring Me The Horizon”
INDEX 01 06:41:13
TRACK 03 AUDIO
TITLE “Blessed with a Curse”
PERFORMER “Bring Me The Horizon”
INDEX 01 11:53:63
TRACK 04 AUDIO
TITLE “Antivist”
PERFORMER “Bring Me The Horizon”
INDEX 01 17:21:47
TRACK 05 AUDIO
TITLE “Sleepwalking”
PERFORMER “Bring Me The Horizon”
INDEX 01 21:23:67
TRACK 06 AUDIO
TITLE “Hospital for Souls”
PERFORMER “Bring Me The Horizon”
INDEX 01 27:05:42
TRACK 07 AUDIO
TITLE “Drown”
PERFORMER “Bring Me The Horizon”
INDEX 01 34:07:22
TRACK 08 AUDIO
TITLE “Can You Feel My Heart”
PERFORMER “Bring Me The Horizon”
INDEX 01 38:30:00


Leave a Reply

Your email address will not be published. Required fields are marked *

Enter the text from the image below
 

This site uses Akismet to reduce spam. Learn how your comment data is processed.