Bring Me The Horizon – That’s The Spirit (Japanese Edition)




[Total: 0    Average: 0/5]

Artist: Bring Me The Horizon
Year: 2015
Genre: Rock
Notes: Discogs
Add. Notes: Japanese Edition
Cover incl.: Yes
Encoder: FLAC
Bitrate: ~1000 kBit/s (44.1 kHz/16 Bit/s)
Log & Cue incl.: Yes
Size: 497,41 MB
Password: “slam” (without ” “)


All Downloads/Hosters are compatible

Download 1
Share-online.biz
KatFile.com
Rapidgator.net
Mexa.sh
Download 2
Share-online.biz
KatFile.com
Rapidgator.net
Mexa.sh

Tracklist:

1. Doomed
2. Happy Song
3. Throne
4. True Friends
5. Follow You
6. What You Need
7. Avalanche
8. Run
9. Drown
10. Blasphemy
11. Oh No

EAC-Log, CUE-Sheed & NFO:

Click to open spoiler
Exact Audio Copy V1.1 from 23. June 2015

????? EAC ?? ??????????, ??????????? 27. ???????? 2015, 21:39

Bring Me The Horizon / That’s The Spirit

????????: ASUS BW-12B1ST Adapter: 1 ID: 0

????? ?????? : ?????????????
????????????? ??????? ?????? : ??
?????????? ???? ????? : ??
????????????? ?????????? C2 : ???

????????? ???????? ??? ?????? : 6
??????????? ?????? ??????? Lead-in ? Lead-out : ???
?????????? ??????????? ??????? ??????? : ??
???????? ?????? ? ??????? ? ?????? ? ????? : ???
??? ??????????? CRC ?????????????? ??????? ?????? : ??
????????? : ?????????? Win32-????????? ??? Win NT/2000

???????? ?????? : ?????????? WAV-????????
?????? ??????? : 44.100 ??; 16 ???; ??????

TOC ???????????? CD

???? | ????? | ???????????? | ????????? ?????? | ???????? ??????
———————————————————————
1 | 0:00.00 | 4:34.10 | 0 | 20559
2 | 4:34.10 | 3:59.29 | 20560 | 38513
3 | 8:33.39 | 3:11.39 | 38514 | 52877
4 | 11:45.03 | 3:52.24 | 52878 | 70301
5 | 15:37.27 | 3:51.08 | 70302 | 87634
6 | 19:28.35 | 4:12.30 | 87635 | 106564
7 | 23:40.65 | 4:22.01 | 106565 | 126215
8 | 28:02.66 | 3:42.57 | 126216 | 142922
9 | 31:45.48 | 3:42.07 | 142923 | 159579
10 | 35:27.55 | 4:35.01 | 159580 | 180205
11 | 40:02.56 | 5:01.01 | 180206 | 202781

?????????????? ????????? ?????????? ? ????????? ?? ???????

????????? ????????

??? ????? D:\EAC\Bring Me The Horizon – 2015 – That’s The Spirit (Japanese Edition) (Sony Music Labels Inc – SICP-4535)\Bring Me The Horizon – 2015 – That’s The Spirit.wav

??????? ??????? 100.0 %
???????? ?????????? 6.6 X
???????? ????????? 100.0 %
CRC ????? 2EBC4BB4
CRC ????? 2EBC4BB4
???????????… OK

?????? ?? ?????????

AccurateRip: ??????

???? 1 ??????????? ? ???? ??????
???? 2 ??????????? ? ???? ??????
???? 3 ??????????? ? ???? ??????
???? 4 ??????????? ? ???? ??????
???? 5 ??????????? ? ???? ??????
???? 6 ??????????? ? ???? ??????
???? 7 ??????????? ? ???? ??????
???? 8 ??????????? ? ???? ??????
???? 9 ??????????? ? ???? ??????
???? 10 ??????????? ? ???? ??????
???? 11 ??????????? ? ???? ??????

?? ?????? ????? ??? ? ???? AccurateRip

????? ??????

—- CUETools DB Plugin V2.1.6

[CTDB TOCID: Qnm9hggG37eMazJZNSpwGdupLHo-] found
Submit result: already submitted
Track | CTDB Status
1 | (67/67) Accurately ripped
2 | (67/67) Accurately ripped
3 | (67/67) Accurately ripped
4 | (67/67) Accurately ripped
5 | (67/67) Accurately ripped
6 | (67/67) Accurately ripped
7 | (67/67) Accurately ripped
8 | (67/67) Accurately ripped
9 | (67/67) Accurately ripped
10 | (67/67) Accurately ripped
11 | (67/67) Accurately ripped

==== ??????????? ????? ?????? DBE3BCF9FB216DB84CAEFEE1D938C31C4C462793EBFD16CE4113A08AC55DAC2F ====

REM GENRE Alternative
REM DATE 2015
REM DISCID 8D0A8F0B
REM COMMENT “ExactAudioCopy v1.1”
PERFORMER “Bring Me The Horizon”
TITLE “That’s The Spirit”
FILE “Bring Me The Horizon – 2015 – That’s The Spirit.flac” WAVE
TRACK 01 AUDIO
TITLE “Doomed”
PERFORMER “Bring Me The Horizon”
ISRC GBARL1500768
INDEX 01 00:00:00
TRACK 02 AUDIO
TITLE “Happy Song”
PERFORMER “Bring Me The Horizon”
ISRC GBARL1500769
INDEX 01 04:34:10
TRACK 03 AUDIO
TITLE “Throne”
PERFORMER “Bring Me The Horizon”
ISRC GBARL1500770
INDEX 01 08:33:39
TRACK 04 AUDIO
TITLE “True Friends”
PERFORMER “Bring Me The Horizon”
ISRC GBARL1500771
INDEX 01 11:45:03
TRACK 05 AUDIO
TITLE “Follow You”
PERFORMER “Bring Me The Horizon”
ISRC GBARL1500772
INDEX 01 15:37:27
TRACK 06 AUDIO
TITLE “What You Need”
PERFORMER “Bring Me The Horizon”
ISRC GBARL1500773
INDEX 01 19:28:35
TRACK 07 AUDIO
TITLE “Avalanche”
PERFORMER “Bring Me The Horizon”
ISRC GBARL1500774
INDEX 01 23:40:65
TRACK 08 AUDIO
TITLE “Run”
PERFORMER “Bring Me The Horizon”
ISRC GBARL1500775
INDEX 01 28:02:66
TRACK 09 AUDIO
TITLE “Drown”
PERFORMER “Bring Me The Horizon”
ISRC GBARL1500797
INDEX 01 31:45:48
TRACK 10 AUDIO
TITLE “Blasphemy”
PERFORMER “Bring Me The Horizon”
ISRC GBARL1500776
INDEX 01 35:27:55
TRACK 11 AUDIO
TITLE “Oh No”
PERFORMER “Bring Me The Horizon”
ISRC GBARL1500777
INDEX 01 40:02:56


Spread the Download

Leave a Reply

Your email address will not be published. Required fields are marked *

Enter the text from the image below
 

This site uses Akismet to reduce spam. Learn how your comment data is processed.