Bring Me The Horizon – Count Your Blessings




Artist: Bring Me The Horizon
Year: 2006
Genre: Metal
Notes: Discogs
Add. Notes:
Cover incl.: Yes
Encoder: FLAC
Bitrate: ~1000 kBit/s (44.1 kHz/16 Bit/s)
Log & Cue incl.: Yes
Size: 333,6 MB
Password: “slam” (without ” “)


All Downloads/Hosters are compatible

Download 1
KatFile.com
Turbobit.net
FileFactory.com
Rapidgator.net
Download 2
KatFile.com
Turbobit.net
FileFactory.com
Rapidgator.net

Tracklist:

1 - Pray For Plagues - 4:22
2 - Tell Slater Not To Wash His Dick - 3:30
3 - For Stevie Wonder's Eyes Only (Braille) - 4:30
4 - A Lot Like Vegas - 2:10
5 - Black & Blue - 4:34
6 - Slow Dance - 1:16
7 - Liquor & Love Lost - 2:39
8 - (I Used To Make Out With) Medusa - 5:39
9 - 15 Fathoms, Counting - 1:57
10 - Off The Heezay - 5:39

EAC-Log, CUE-Sheed & NFO:

Click to open spoiler
Exact Audio Copy V1.0 beta 3 from 29. August 2011

Отчёт EAC об извлечении, выполненном 8. января 2015, 19:22

Bring Me The Horizon / Count Your Blessings

Дисковод: ASUS BW-12B1ST Adapter: 3 ID: 0

Режим чтения : Достоверность
Использование точного потока : Да
Отключение кэша аудио : Да
Использование указателей C2 : Нет

Коррекция смещения при чтении : 6
Способность читать области Lead-in и Lead-out : Нет
Заполнение пропущенных сэмплов тишиной : Да
Удаление блоков с тишиной в начале и конце : Нет
При вычислениях CRC использовались нулевые сэмплы : Да
Интерфейс : Встроенный Win32-интерфейс для Win NT/2000

Выходной формат : Внутренние WAV-операции
Формат сэмплов : 44.100 Гц; 16 бит; стерео

TOC извлечённого CD

Трек | Старт | Длительность | Начальный сектор | Конечный сектор
———————————————————————
1 | 0:00.00 | 4:21.56 | 0 | 19630
2 | 4:21.56 | 3:30.33 | 19631 | 35413
3 | 7:52.14 | 4:29.48 | 35414 | 55636
4 | 12:21.62 | 2:09.66 | 55637 | 65377
5 | 14:31.53 | 4:33.49 | 65378 | 85901
6 | 19:05.27 | 1:16.30 | 85902 | 91631
7 | 20:21.57 | 2:39.27 | 91632 | 103583
8 | 23:01.09 | 5:38.74 | 103584 | 129007
9 | 28:40.08 | 1:56.63 | 129008 | 137770
10 | 30:36.71 | 5:38.72 | 137771 | 163192

Характеристики диапазона извлечения и сообщения об ошибках

Выбранный диапазон

Имя файла D:\EAC\Bring Me The Horizon – 2006 – Count Your Blessings (Earache – mosh 355)\Bring Me The Horizon – 2006 – Count Your Blessings.wav

Пиковый уровень 95.2 %
Скорость извлечения 2.9 X
Качество диапазона 99.9 %
CRC теста 2A947110
CRC копии 2A947110
Копирование… OK

Ошибок не произошло

AccurateRip: сводка

Трек 1 : извлечено точно (доверие 2) [FB068417] (AR v2)
Трек 2 : извлечено точно (доверие 2) [A8540F79] (AR v2)
Трек 3 : извлечено точно (доверие 2) [D94BD6FE] (AR v2)
Трек 4 : извлечено точно (доверие 2) [4BD78FFC] (AR v2)
Трек 5 : извлечено точно (доверие 2) [38A8889F] (AR v2)
Трек 6 : извлечено точно (доверие 2) [2A786463] (AR v2)
Трек 7 : извлечено точно (доверие 2) [2B92B3C2] (AR v2)
Трек 8 : извлечено точно (доверие 2) [F5188700] (AR v2)
Трек 9 : извлечено точно (доверие 2) [BDFA51DE] (AR v2)
Трек 10 : извлечено точно (доверие 2) [24CDB464] (AR v2)

Все треки извлечены точно

Конец отчёта

==== Контрольная сумма отчёта ED0B30670598248E75BA5A82234DBC8171B3A02C810784F70080028F17989294 ====

REM GENRE Metal
REM DATE 2006
REM DISCID 80087F0A
REM COMMENT “ExactAudioCopy v1.0b3”
PERFORMER “Bring Me The Horizon”
TITLE “Count Your Blessings”
FILE “Bring Me The Horizon – 2006 – Count Your Blessings.flac” WAVE
TRACK 01 AUDIO
TITLE “Pray For Plagues”
PERFORMER “Bring Me The Horizon”
ISRC GBBPB0702120
INDEX 01 00:00:00
TRACK 02 AUDIO
TITLE “Tell Slater Not To Wash His Dick”
PERFORMER “Bring Me The Horizon”
ISRC GBBPB0702121
INDEX 01 04:21:56
TRACK 03 AUDIO
TITLE “Braille (For Stevie’s Wonders Eyes Only)”
PERFORMER “Bring Me The Horizon”
ISRC GBBPB0702122
INDEX 01 07:52:14
TRACK 04 AUDIO
TITLE “A Lot Like Vegas”
PERFORMER “Bring Me The Horizon”
ISRC GBBPB0702123
INDEX 01 12:21:62
TRACK 05 AUDIO
TITLE “Black & Blue”
PERFORMER “Bring Me The Horizon”
ISRC GBBPB0702124
INDEX 01 14:31:53
TRACK 06 AUDIO
TITLE “Slow Dance”
PERFORMER “Bring Me The Horizon”
ISRC GBBPB0702125
INDEX 01 19:05:27
TRACK 07 AUDIO
TITLE “Liquor & Love Lost”
PERFORMER “Bring Me The Horizon”
ISRC GBBPB0702126
INDEX 01 20:21:57
TRACK 08 AUDIO
TITLE “(I Used To Make Out With) Medusa”
PERFORMER “Bring Me The Horizon”
ISRC GBBPB0702127
INDEX 01 23:01:09
TRACK 09 AUDIO
TITLE “Fifteen Fathoms, Counting”
PERFORMER “Bring Me The Horizon”
ISRC GBBPB0702128
INDEX 01 28:40:08
TRACK 10 AUDIO
TITLE “Off The Heezay”
PERFORMER “Bring Me The Horizon”
ISRC GBBPB0702129
INDEX 01 30:36:71


Leave a Reply

Your email address will not be published. Required fields are marked *

Enter the text from the image below
 

This site uses Akismet to reduce spam. Learn how your comment data is processed.