Bonnie Tyler – The Very Best Of




Artist: Bonnie Tyler
Year: 1993
Genre: Rock
Notes: Discogs
Add. Notes:
Encoder: FLAC
Bitrate: ~1000 kBit/s (44.1 kHz/16 Bit/s)
Bin/Cue incl.: Yes
Size: 589,81 MB
Password: “slam” (without ” “)


http://www.share-online.biz/dl/JYS53PRPHRKU
http://www.share-online.biz/dl/SS853PRPE1ZM
https://rapidgator.net/file/711fd3a4a6d9f04a1aa29c0d7a38ab9a
https://rapidgator.net/file/e351165f61e8146b3fca53e5313671d1
https://uploadbyte.com/4neox3soipuh
https://uploadbyte.com/nb6aulzus8su

Tracklist:

1 - Lost In France - 3:55
2 - It's A Heartache - 3:30
3 - Here Am I - 3:49
4 - Total Eclipse Of The Heart - 6:58
5 - Straight From The Heart - 3:42
6 - A Rockin' Goodway (To Mess Around And Fall In 
Love) - 2:54
7 - Holding Out For A Hero - 5:50
8 - Loving You Is A Dirty Job But Somebody's Gotta Do 
It - 7:49
9 - If You Were A Woman (And I Was A Man) - 5:15
10 - Islands - 4:19
11 - Hide Your Heart - 4:22
12 - Save Up All Your Tears - 4:20
13 - Bitterblue - 3:48
14 - Against The Wind - 3:38
15 - Where Were You - 4:54
16 - Till The End Of Time - 3:49
17 - I Can't Leave Your Love Alone (Previously 
Unreleased) - 4:02

EAC-Log, CUE-Sheed & NFO:

Click to open spoiler
Exact Audio Copy V0.99 prebeta 5 from 4. May 2009

Отчёт EAC об извлечении, выполненном 20. ноября 2010, 22:10

Bonnie Tyler / The Very Best Of

Дисковод: Optiarc DVD RW AD-5200A Adapter: 0 ID: 0

Режим чтения : Достоверность
Использование точного потока : Да
Отключение кэша аудио : Да
Использование указателей C2 : Нет

Коррекция смещения при чтении : 48
Способность читать области Lead-in и Lead-out : Нет
Заполнение пропущенных сэмплов тишиной : Да
Удаление блоков с тишиной в начале и конце : Нет
При вычислениях CRC использовались нулевые сэмплы : Да
Интерфейс : Встроенный Win32-интерфейс для Win NT/2000

Выходной формат : Внутренние WAV-операции
Формат сэмплов : 44.100 Гц; 16 бит; стерео

TOC извлечённого CD

Трек | Старт | Длительность | Начальный сектор | Конечный сектор
———————————————————————
1 | 0:00.00 | 3:55.00 | 0 | 17624
2 | 3:55.00 | 3:30.00 | 17625 | 33374
3 | 7:25.00 | 3:49.00 | 33375 | 50549
4 | 11:14.00 | 6:58.00 | 50550 | 81899
5 | 18:12.00 | 3:42.00 | 81900 | 98549
6 | 21:54.00 | 2:53.50 | 98550 | 111574
7 | 24:47.50 | 5:49.50 | 111575 | 137799
8 | 30:37.25 | 7:48.50 | 137800 | 172949
9 | 38:26.00 | 5:15.00 | 172950 | 196574
10 | 43:41.00 | 4:18.37 | 196575 | 215961
11 | 47:59.37 | 4:22.13 | 215962 | 235624
12 | 52:21.50 | 4:20.25 | 235625 | 255149
13 | 56:42.00 | 3:48.00 | 255150 | 272249
14 | 60:30.00 | 3:38.00 | 272250 | 288599
15 | 64:08.00 | 4:54.00 | 288600 | 310649
16 | 69:02.00 | 3:49.00 | 310650 | 327824
17 | 72:51.00 | 4:01.25 | 327825 | 345924

Характеристики диапазона извлечения и сообщения об ошибках

Выбранный диапазон

Имя файла D:\All\Music\Bonnie Tyler – The Very Best Of\Bonnie Tyler – The Very Best Of.wav

Пиковый уровень 100.0 %
Качество диапазона 100.0 %
CRC теста 90884AA9
CRC копии 90884AA9
Копирование… OK

Ошибок не произошло

AccurateRip: сводка

Трек 1 точное извлечение (доверие 2) [7EA2215D]
Трек 2 точное извлечение (доверие 2) [FEEF3804]
Трек 3 точное извлечение (доверие 2) [FA786499]
Трек 4 точное извлечение (доверие 2) [5DA4EF4F]
Трек 5 точное извлечение (доверие 2) [84830340]
Трек 6 точное извлечение (доверие 2) [68813AB4]
Трек 7 точное извлечение (доверие 2) [54E68567]
Трек 8 точное извлечение (доверие 2) [C0075D55]
Трек 9 точное извлечение (доверие 2) [24B33569]
Трек 10 точное извлечение (доверие 2) [51E43E5D]
Трек 11 точное извлечение (доверие 2) [660577CE]
Трек 12 точное извлечение (доверие 2) [2D2B3AF0]
Трек 13 точное извлечение (доверие 2) [10FA44F8]
Трек 14 точное извлечение (доверие 2) [5FF98E0B]
Трек 15 точное извлечение (доверие 2) [25DD2B51]
Трек 16 точное извлечение (доверие 2) [C7F6050A]
Трек 17 точное извлечение (доверие 2) [461A82C2]

Все треки извлечены точно

Конец отчёта

REM GENRE Pop
REM DATE 1993
REM COMMENT eXenz
CATALOG 5099747303920
PERFORMER “Bonnie Tyler”
TITLE “The Very Best Of”
FILE “01 – Lost In France.wav” WAVE
TRACK 01 AUDIO
TITLE “Lost In France”
PERFORMER “Bonnie Tyler”
INDEX 01 00:00:00
FILE “02 – It’s A Heartache.wav” WAVE
TRACK 02 AUDIO
TITLE “It’s A Heartache”
PERFORMER “Bonnie Tyler”
INDEX 01 00:00:00
FILE “03 – Here Am I.wav” WAVE
TRACK 03 AUDIO
TITLE “Here Am I”
PERFORMER “Bonnie Tyler”
INDEX 01 00:00:00
FILE “04 – Total Eclipse Of The Heart.wav” WAVE
TRACK 04 AUDIO
TITLE “Total Eclipse Of The Heart”
PERFORMER “Bonnie Tyler”
INDEX 01 00:00:00
FILE “05 – Straight From The Heart.wav” WAVE
TRACK 05 AUDIO
TITLE “Straight From The Heart”
PERFORMER “Bonnie Tyler”
INDEX 01 00:00:00
FILE “06 – A Rockin’ Good Way (To Mess Around And Fall In Love) (Duet With Shakin’ Stevens).wav” WAVE
TRACK 06 AUDIO
TITLE “A Rockin’ Good Way (To Mess Around And Fall In Love) (Duet With Shakin’ Stevens)”
PERFORMER “Bonnie Tyler”
INDEX 01 00:00:00
FILE “07 – Holding Out For A Hero.wav” WAVE
TRACK 07 AUDIO
TITLE “Holding Out For A Hero”
PERFORMER “Bonnie Tyler”
INDEX 01 00:00:00
FILE “08 – Loving You Is A Dirty Job But Somebody’s Gotta Do It (Feat.Todd Rundgren).wav” WAVE
TRACK 08 AUDIO
TITLE “Loving You Is A Dirty Job But Somebody’s Gotta Do It (Feat.Todd Rundgren)”
PERFORMER “Bonnie Tyler”
INDEX 01 00:00:00
FILE “09 – If You Were A Woman (And I Was A Man).wav” WAVE
TRACK 09 AUDIO
TITLE “If You Were A Woman (And I Was A Man)”
PERFORMER “Bonnie Tyler”
INDEX 01 00:00:00
FILE “10 – Islands (Feat.Mike Oldfield).wav” WAVE
TRACK 10 AUDIO
TITLE “Islands (Feat.Mike Oldfield)”
PERFORMER “Bonnie Tyler”
INDEX 01 00:00:00
FILE “11 – Hide Your Heart.wav” WAVE
TRACK 11 AUDIO
TITLE “Hide Your Heart”
PERFORMER “Bonnie Tyler”
INDEX 01 00:00:00
FILE “12 – Save Up All Your Tears.wav” WAVE
TRACK 12 AUDIO
TITLE “Save Up All Your Tears”
PERFORMER “Bonnie Tyler”
INDEX 01 00:00:00
FILE “13 – Bitterblue.wav” WAVE
TRACK 13 AUDIO
TITLE Bitterblue
PERFORMER “Bonnie Tyler”
INDEX 01 00:00:00
FILE “14 – Against The Wind.wav” WAVE
TRACK 14 AUDIO
TITLE “Against The Wind”
PERFORMER “Bonnie Tyler”
INDEX 01 00:00:00
FILE “15 – Where Were You.wav” WAVE
TRACK 15 AUDIO
TITLE “Where Were You”
PERFORMER “Bonnie Tyler”
INDEX 01 00:00:00
FILE “16 – Till The End Of Time (Duet With Dan Hartman).wav” WAVE
TRACK 16 AUDIO
TITLE “Till The End Of Time (Duet With Dan Hartman)”
PERFORMER “Bonnie Tyler”
INDEX 01 00:00:00
FILE “17 – I Can’t Leave Your Love Alone (Previously Unreleased).wav” WAVE
TRACK 17 AUDIO
TITLE “I Can’t Leave Your Love Alone (Previously Unreleased)”
PERFORMER “Bonnie Tyler”
INDEX 01 00:00:00

Leave a Reply

Your email address will not be published. Required fields are marked *

This site uses Akismet to reduce spam. Learn how your comment data is processed.