Bonnie Tyler – Between the Earth and the Stars




Artist: Bonnie Tyler
Year: 2019
Genre: Rock
Notes: Discogs
Add. Notes:
Encoder: FLAC
Bitrate: ~1000 kBit/s (44.1 kHz/16 Bit/s)
Bin/Cue incl.: Yes
Size: 351,81 MB
Password: “slam” (without ” “)


http://www.share-online.biz/dl/2B0K1ORPIOBC
https://rapidgator.net/file/48b73ffec94147e9fdb298abfa6e856e
https://uploadbyte.com/ectmwasawrhu

Tracklist:

1 - Hold On - 3:18
2 - Battle Of The Sexes - 3:47
3 - Slow Walk - 3:13
4 - Seven Waves Away - 3:44
5 - Someone's Rockin' Your Heart - 3:01
6 - Older - 3:41
7 - Taking Control - 3:36
8 - Between The Earth And The Stars - 3:55
9 - Don't Push Your Luck - 3:07
10 - To The Moon And Back - 3:41
11 - Bad For Loving You - 2:57
12 - Let's Go Crazy Tonight - 3:00
13 - Missing You - 3:53
14 - Move - 3:41

EAC-Log, CUE-Sheed & NFO:

Click to open spoiler
CUE Corrector v. 8.3.5 / b. 913 (Apr. 22, 2019)
————————————————————————————————————————————————————————————————————————
Bonnie Tyler / Between the Earth and the Stars

Folder: 2019 Bonnie Tyler – Between the Earth and the Stars [FLAC]
Audio files:
01 – Hold On.flac [03:18.093; FLAC • 1060 kbps • 16 bit \ 48000 Hz • stereo; 25.04 MB (26 256 329 B)]
02 – Battle of the Sexes.flac [03:47.013; FLAC • 1112 kbps • 16 bit \ 48000 Hz • stereo; 30.12 MB (31 578 296 B)]
03 – Slow Walk.flac [03:13.053; FLAC • 997 kbps • 16 bit \ 48000 Hz • stereo; 22.96 MB (24 071 186 B)]
04 – Seven Waves Away.flac [03:44.973; FLAC • 983 kbps • 16 bit \ 48000 Hz • stereo; 26.36 MB (27 642 584 B)]
05 – Someone’s Rockin’ Your Heart.flac [03:01.480; FLAC • 1074 kbps • 16 bit \ 48000 Hz • stereo; 23.24 MB (24 369 936 B)]
06 – Older.flac [03:41.907; FLAC • 914 kbps • 16 bit \ 48000 Hz • stereo; 24.19 MB (25 365 874 B)]
07 – Taking Control.flac [03:36.093; FLAC • 1031 kbps • 16 bit \ 48000 Hz • stereo; 26.58 MB (27 868 137 B)]
08 – Between the Earth and the Stars.flac [03:55.347; FLAC • 923 kbps • 16 bit \ 48000 Hz • stereo; 25.92 MB (27 177 217 B)]
09 – Don’t Push Your Luck.flac [03:07.080; FLAC • 1078 kbps • 16 bit \ 48000 Hz • stereo; 24.05 MB (25 216 139 B)]
10 – To the Moon and Back.flac [03:41.427; FLAC • 839 kbps • 16 bit \ 48000 Hz • stereo; 22.17 MB (23 245 635 B)]
11 – Bad for Loving You.flac [02:57.067; FLAC • 1061 kbps • 16 bit \ 48000 Hz • stereo; 22.40 MB (23 489 117 B)]
12 – Let’s Go Crazy Tonight.flac [03:00.027; FLAC • 1064 kbps • 16 bit \ 48000 Hz • stereo; 22.84 MB (23 946 383 B)]
13 – Missing You.flac [03:53.013; FLAC • 1024 kbps • 16 bit \ 48000 Hz • stereo; 28.45 MB (29 836 578 B)]
14 – Move.flac [03:41.507; FLAC • 1038 kbps • 16 bit \ 48000 Hz • stereo; 27.41 MB (28 746 294 B)]

Accuracy: -m0

File 01 – Hold On – 100% CDDA [03:18:07]
File 02 – Battle of the Sexes – 100% CDDA [03:47:01]
File 03 – Slow Walk – 100% CDDA [03:13:04]
File 04 – Seven Waves Away – 95% MPEG [03:44:73]
File 05 – Someone’s Rockin’ Your Heart – 100% CDDA [03:01:36]
File 06 – Older – 85% CDDA [03:41:68]
File 07 – Taking Control – 94% CDDA [03:36:07]
File 08 – Between the Earth and the Stars – 100% CDDA [03:55:26]
File 09 – Don’t Push Your Luck – 100% CDDA [03:07:06]
File 10 – To the Moon and Back – 95% MPEG [03:41:32]
File 11 – Bad for Loving You – 99% CDDA [02:57:05]
File 12 – Let’s Go Crazy Tonight – 86% CDDA [03:00:02]
File 13 – Missing You – 100% CDDA [03:53:01]
File 14 – Move – 95% MPEG [03:41:38]
————— Summary: —————
These tracks looks like CDDA with probability 100%.
————————————————————————————————————————————————————————————————————————

ANALYZER:
auCDtect: CD records authenticity detector, version 0.8.2
Copyright (c) 2004 Oleg Berngardt. All rights reserved.
Copyright (c) 2004 Alexander Djourik. All rights reserved.

Time elapsed: 2 m 18 s
Log created at May 07, 2019 19:59:45

=== BF900EA7F02300F1371FACA47A4EEC5860DD9E9C9D2FFC8146C3A94FD2E2FF96 ===
REM GENRE Pop
REM DATE 2019
REM COMMENT eXenz
PERFORMER “Bonnie Tyler”
TITLE “Between the Earth and the Stars”
FILE “01 – Hold On.flac” WAVE
TRACK 01 AUDIO
TITLE “Hold On”
PERFORMER “Bonnie Tyler”
INDEX 01 00:00:00
FILE “02 – Battle of the Sexes.flac” WAVE
TRACK 02 AUDIO
TITLE “Battle of the Sexes”
PERFORMER “Bonnie Tyler”
INDEX 01 00:00:00
FILE “03 – Slow Walk.flac” WAVE
TRACK 03 AUDIO
TITLE “Slow Walk”
PERFORMER “Bonnie Tyler”
INDEX 01 00:00:00
FILE “04 – Seven Waves Away.flac” WAVE
TRACK 04 AUDIO
TITLE “Seven Waves Away”
PERFORMER “Bonnie Tyler”
INDEX 01 00:00:00
FILE “05 – Someone’s Rockin’ Your Heart.flac” WAVE
TRACK 05 AUDIO
TITLE “Someone’s Rockin’ Your Heart”
PERFORMER “Bonnie Tyler”
INDEX 01 00:00:00
FILE “06 – Older.flac” WAVE
TRACK 06 AUDIO
TITLE Older
PERFORMER “Bonnie Tyler”
INDEX 01 00:00:00
FILE “07 – Taking Control.flac” WAVE
TRACK 07 AUDIO
TITLE “Taking Control”
PERFORMER “Bonnie Tyler”
INDEX 01 00:00:00
FILE “08 – Between the Earth and the Stars.flac” WAVE
TRACK 08 AUDIO
TITLE “Between the Earth and the Stars”
PERFORMER “Bonnie Tyler”
INDEX 01 00:00:00
FILE “09 – Don’t Push Your Luck.flac” WAVE
TRACK 09 AUDIO
TITLE “Don’t Push Your Luck”
PERFORMER “Bonnie Tyler”
INDEX 01 00:00:00
FILE “10 – To the Moon and Back.flac” WAVE
TRACK 10 AUDIO
TITLE “To the Moon and Back”
PERFORMER “Bonnie Tyler”
INDEX 01 00:00:00
FILE “11 – Bad for Loving You.flac” WAVE
TRACK 11 AUDIO
TITLE “Bad for Loving You”
PERFORMER “Bonnie Tyler”
INDEX 01 00:00:00
FILE “12 – Let’s Go Crazy Tonight.flac” WAVE
TRACK 12 AUDIO
TITLE “Let’s Go Crazy Tonight”
PERFORMER “Bonnie Tyler”
INDEX 01 00:00:00
FILE “13 – Missing You.flac” WAVE
TRACK 13 AUDIO
TITLE “Missing You”
PERFORMER “Bonnie Tyler”
INDEX 01 00:00:00
FILE “14 – Move.flac” WAVE
TRACK 14 AUDIO
TITLE Move
PERFORMER “Bonnie Tyler”
INDEX 01 00:00:00

Leave a Reply

Your email address will not be published. Required fields are marked *

This site uses Akismet to reduce spam. Learn how your comment data is processed.