Bong Wizard – Left Hand Pass




No Cover available

Artist: Bong Wizard
Year: 2020
Genre: Metal
Notes: Discogs
Add. Notes:
Watch Songs on: YouTube
Cover incl.: Yes
Encoder: FLAC
Bitrate: ~900 kBit/s (44.1 kHz/16 Bit/s)
Log & Cue incl.: Yes/Yes
Size: 321,4 MB
Password: “slam” (without ” “)


All Downloads/Hosters are compatible

Download 1
KatFile.com
Turbobit.net
Rapidgator.net
FileFactory.com
Download 2
KatFile.com
Turbobit.net
Rapidgator.net
FileFactory.com

Tracklist:

01 - It Took One Hit to Believe (00:03:26)
02 - Christ Is Resin (00:06:45)
03 - Left Hand Pass (00:07:25)
04 - Mystic Bong (00:04:42)
05 - Apostle (00:06:22)
06 - Black Moon (00:04:20)
07 - Believer's Hit (00:05:07)
08 - Dark Plume (00:08:41)

EAC-Log, CUE-Sheed & NFO:

Click to open spoiler
foobar2000 1.3.9 / Замер динамического диапазона (DR) 1.1.1
Дата отчёта: 2020-02-21 08:46:11

——————————————————————————–
Анализ: Bong Wizard / Left Hand Pass
——————————————————————————–

DR Пики RMS Продолжительность трека
——————————————————————————–
DR6 -0.30 дБ -6.97 дБ 3:26 01-It Took One Hit to Believe
DR6 -0.27 дБ -6.45 дБ 6:45 02-Christ Is Resin
DR7 -0.19 дБ -7.88 дБ 7:26 03-Left Hand Pass
DR6 -0.26 дБ -7.36 дБ 4:43 04-Mystic Bong
DR6 -0.24 дБ -8.32 дБ 6:23 05-Apostle
DR6 -0.28 дБ -7.21 дБ 4:20 06-Black Moon
DR6 -0.27 дБ -6.87 дБ 5:08 07-Believer’s Hit
DR6 -0.27 дБ -7.66 дБ 8:42 08-Dark Plume
——————————————————————————–

Количество треков: 8
Реальные значения DR: DR6

Частота: 44100 Гц
Каналов: 2
Разрядность: 16
Битрейт: 896 кбит/с
Кодек: FLAC
================================================================================
———————–

DON’T MODIFY THIS FILE

———————–

PERFORMER: auCDtect Task Manager, ver. 1.5.1RC3 build 1.5.1.4
Copyright (c) 2008-2010 y-soft. All rights reserved
http://y-soft.org

ANALYZER: auCDtect: CD records authenticity detector, version 0.8.2
Copyright (c) 2004 Oleg Berngardt. All rights reserved.
Copyright (c) 2004 Alexander Djourik. All rights reserved.

FILE: 08 – Dark Plume.flac
Size: 58699068 Hash: CBAEAD4224CB9AD792E68826D05BD4FD Accuracy: -m8
Conclusion: CDDA 100%
Signature: B2F670677BDDA65C4632DDFB1522344E1F1C2E69
FILE: 07 – Believer’s Hit.flac
Size: 37486676 Hash: 2B2C0CC9E1260C70A782C9D10C3BD4F5 Accuracy: -m8
Conclusion: CDDA 100%
Signature: FE8535B61AF3BA449278D0CE5E631B99389CF781
FILE: 06 – Black Moon.flac
Size: 33614120 Hash: C799121CA205971B977A85372348FFBC Accuracy: -m8
Conclusion: CDDA 99%
Signature: 8369FF71DAC62CBB9713CBC7B48D7497DF155E2A
FILE: 05 – Apostle.flac
Size: 43531749 Hash: 7E455526B6B0116FFC86FF291EBEC822 Accuracy: -m8
Conclusion: CDDA 100%
Signature: 0364E9A6B57875415C73121D76FDC5F786F13985
FILE: 04 – Mystic Bong.flac
Size: 33472894 Hash: 851F9EA20E9D468F3605627744B1DDE1 Accuracy: -m8
Conclusion: CDDA 100%
Signature: 80AABD94C71FFC8DACB03FD8A1A8F1FC338F1846
FILE: 03 – Left Hand Pass.flac
Size: 56989173 Hash: 0D3C3DB4C0E22D1830F4A2867F648D93 Accuracy: -m8
Conclusion: CDDA 100%
Signature: 13B8B75684960E56DADFD1E59526B2D3800351BC
FILE: 02 – Christ Is Resin.flac
Size: 52341603 Hash: FC0C360ECAA02F78DC5DAE54289E79A9 Accuracy: -m8
Conclusion: CDDA 100%
Signature: F334E6CEBE64B72A3C7578089E53708161C68371
FILE: 01 – It Took One Hit to Believe.flac
Size: 20640395 Hash: 67D0D3E86603244F3F1D81B11C9E64C0 Accuracy: -m8
Conclusion: CDDA 100%
Signature: B424F4B70A10E08E91CAEE6F99401B75F51F0C93


Leave a Reply

Your email address will not be published. Required fields are marked *

Enter the text from the image below
 

This site uses Akismet to reduce spam. Learn how your comment data is processed.