Bon Jovi – This Left Feels Right (Special Edition)




No Cover available

Artist: Bon Jovi
Year: 2003
Genre: Rock
Notes: Discogs
Add. Notes: Special Edition
Watch Songs on: YouTube
Cover incl.: Yes
Encoder: FLAC
Bitrate: ~1000 kBit/s (44.1 kHz/16 Bit/s)
Log & Cue incl.: Yes/Yes
Size: 536,8 MB
Password: “slam” (without ” “)


All Downloads/Hosters are compatible

Download 1
KatFile.com
Turbobit.net
FileFactory.com
Rapidgator.net
Download 2
KatFile.com
Turbobit.net
FileFactory.com
Rapidgator.net

Tracklist:

1. Wanted Dead Of Alive  
2. Livin' On A Prayer  
3. Bad Medicine  
4. It's My Life  
5. Lay Your Hands On Me  
6. You Give Love A Bad Name  
7. Bed Of Roses  
8. Everyday  
9. Born To Be My Baby  
10.Keep The Faith  
11.I'll Be There For You  
12.Always  
Bonus Tracks:
13. The Distance (Live)  
14. Joey (Live)

EAC-Log, CUE-Sheed & NFO:

Click to open spoiler
Exact Audio Copy V1.3 from 2. September 2016

Отчёт EAC об извлечении, выполненном 8. декабря 2016, 19:38

Bon Jovi / This Left Feels Right

Дисковод: Optiarc BD RW BD-5750H Adapter: 1 ID: 0

Режим чтения : Достоверность
Использование точного потока : Да
Отключение кэша аудио : Да
Использование указателей C2 : Нет

Коррекция смещения при чтении : 48
Способность читать области Lead-in и Lead-out : Нет
Заполнение пропущенных сэмплов тишиной : Да
Удаление блоков с тишиной в начале и конце : Нет
При вычислениях CRC использовались нулевые сэмплы : Да
Интерфейс : Встроенный Win32-интерфейс для Win NT/2000

Выходной формат : Пользовательский кодировщик
Выбранный битрейт : 1024 kBit/s
Качество : Высокий
Добавление ID3-тега : Нет
Утилита сжатия : C:\Program Files (x86)\Exact Audio Copy\FLAC\FLAC.EXE
Дополнительные параметры : -V -8 -T “Date=%year%” -T “Genre=%genre%” %source%

TOC извлечённого CD

Трек | Старт | Длительность | Начальный сектор | Конечный сектор
———————————————————————
1 | 0:00.00 | 3:43.39 | 0 | 16763
2 | 3:43.39 | 3:41.18 | 16764 | 33356
3 | 7:24.57 | 4:27.01 | 33357 | 53382
4 | 11:51.58 | 3:42.21 | 53383 | 70053
5 | 15:34.04 | 4:27.16 | 70054 | 90094
6 | 20:01.20 | 3:29.67 | 90095 | 105836
7 | 23:31.12 | 5:38.17 | 105837 | 131203
8 | 29:09.29 | 3:45.14 | 131204 | 148092
9 | 32:54.43 | 5:27.42 | 148093 | 172659
10 | 38:22.10 | 4:12.09 | 172660 | 191568
11 | 42:34.19 | 4:21.66 | 191569 | 211209
12 | 46:56.10 | 4:19.67 | 211210 | 230701
13 | 51:16.02 | 5:56.19 | 230702 | 257420
14 | 57:12.21 | 5:22.30 | 257421 | 281600

Характеристики диапазона извлечения и сообщения об ошибках

Выбранный диапазон

Имя файла D:\MUSIC-lossless\Bon_Jovi_Discography_Содержание&Оформление_раздачи\BJ_Discography\01 Studio albums\2003-This Left Feels Right\Bon Jovi – This Left Feels Right.wav

Пиковый уровень 100.0 %
Скорость извлечения 7.0 X
Качество диапазона 100.0 %
CRC теста 88A213FE
CRC копии 88A213FE
Копирование… OK

Ошибок не произошло

AccurateRip: сводка

Трек 1 : извлечено точно (доверие 36) [8A41E275] (AR v2)
Трек 2 : извлечено точно (доверие 36) [A1A5CAC8] (AR v2)
Трек 3 : извлечено точно (доверие 36) [303D3D8C] (AR v2)
Трек 4 : извлечено точно (доверие 36) [C0EFEA7E] (AR v2)
Трек 5 : извлечено точно (доверие 36) [BA3C2E9C] (AR v2)
Трек 6 : извлечено точно (доверие 36) [9B8A8D2D] (AR v2)
Трек 7 : извлечено точно (доверие 36) [69311C96] (AR v2)
Трек 8 : извлечено точно (доверие 36) [6ACE4F70] (AR v2)
Трек 9 : извлечено точно (доверие 35) [C0420AE0] (AR v2)
Трек 10 : извлечено точно (доверие 36) [BC7FFA58] (AR v2)
Трек 11 : извлечено точно (доверие 34) [582430B3] (AR v2)
Трек 12 : извлечено точно (доверие 34) [478A0BD2] (AR v2)
Трек 13 : извлечено точно (доверие 33) [067FD2A3] (AR v2)
Трек 14 : извлечено точно (доверие 35) [06582D3E] (AR v2)

Все треки извлечены точно

Конец отчёта

—- CUETools DB Plugin V2.1.6

[CTDB TOCID: Li934lYJ3PfL78lMaTM.iPwWfnE-] found
Submit result: already submitted
Track | CTDB Status
1 | (36/36) Accurately ripped
2 | (36/36) Accurately ripped
3 | (35/36) Accurately ripped
4 | (36/36) Accurately ripped
5 | (36/36) Accurately ripped
6 | (35/36) Accurately ripped
7 | (35/36) Accurately ripped
8 | (36/36) Accurately ripped
9 | (36/36) Accurately ripped
10 | (36/36) Accurately ripped
11 | (36/36) Accurately ripped
12 | (36/36) Accurately ripped
13 | (36/36) Accurately ripped
14 | (36/36) Accurately ripped

==== Контрольная сумма отчёта 32ABB55867940FB19E0F158DDC9C7862D49E82B27AC260AD2E69CC65CFB4E722 ====

REM GENRE “Arena Rock”
REM DATE 2003
REM DISCID B80EAA0E
REM COMMENT “ExactAudioCopy v1.3”
PERFORMER “Bon Jovi”
TITLE “This Left Feels Right”
REM COMPOSER “”
FILE “Bon Jovi – This Left Feels Right.flac” WAVE
TRACK 01 AUDIO
TITLE “Wanted Dead Or Alive”
PERFORMER “Bon Jovi”
REM COMPOSER “”
FLAGS DCP
INDEX 01 00:00:00
TRACK 02 AUDIO
TITLE “Livin’ On A Prayer [featuring Olivia d’Abo]”
PERFORMER “Bon Jovi”
REM COMPOSER “”
FLAGS DCP
INDEX 01 03:43:39
TRACK 03 AUDIO
TITLE “Bad Medicine”
PERFORMER “Bon Jovi”
REM COMPOSER “”
FLAGS DCP
INDEX 00 07:23:68
INDEX 01 07:24:57
TRACK 04 AUDIO
TITLE “It’s My Life”
PERFORMER “Bon Jovi”
REM COMPOSER “”
FLAGS DCP
INDEX 01 11:51:58
TRACK 05 AUDIO
TITLE “Lay Your Hands On Me”
PERFORMER “Bon Jovi”
REM COMPOSER “”
FLAGS DCP
INDEX 00 15:33:64
INDEX 01 15:34:04
TRACK 06 AUDIO
TITLE “You Give Love A Bad Name”
PERFORMER “Bon Jovi”
REM COMPOSER “”
FLAGS DCP
INDEX 01 20:01:20
TRACK 07 AUDIO
TITLE “Bed Of Roses”
PERFORMER “Bon Jovi”
REM COMPOSER “”
FLAGS DCP
INDEX 00 23:30:52
INDEX 01 23:31:12
TRACK 08 AUDIO
TITLE “Everyday”
PERFORMER “Bon Jovi”
REM COMPOSER “”
FLAGS DCP
INDEX 00 29:09:00
INDEX 01 29:09:29
TRACK 09 AUDIO
TITLE “Born To Be My Baby”
PERFORMER “Bon Jovi”
REM COMPOSER “”
FLAGS DCP
INDEX 00 32:53:35
INDEX 01 32:54:43
TRACK 10 AUDIO
TITLE “Keep The Faith”
PERFORMER “Bon Jovi”
REM COMPOSER “”
FLAGS DCP
INDEX 00 38:21:62
INDEX 01 38:22:10
TRACK 11 AUDIO
TITLE “I’ll Be There For You”
PERFORMER “Bon Jovi”
REM COMPOSER “”
FLAGS DCP
INDEX 01 42:34:19
TRACK 12 AUDIO
TITLE “Always”
PERFORMER “Bon Jovi”
REM COMPOSER “”
FLAGS DCP
INDEX 00 46:55:55
INDEX 01 46:56:10
TRACK 13 AUDIO
TITLE “The Distance [bonus, live]”
PERFORMER “Bon Jovi”
REM COMPOSER “”
FLAGS DCP
INDEX 00 51:14:48
INDEX 01 51:16:02
TRACK 14 AUDIO
TITLE “Joey [bonus, live]”
PERFORMER “Bon Jovi”
REM COMPOSER “”
FLAGS DCP
INDEX 00 57:10:22
INDEX 01 57:12:21


Leave a Reply

Your email address will not be published. Required fields are marked *

Enter the text from the image below
 

This site uses Akismet to reduce spam. Learn how your comment data is processed.