Bon Jovi – 7800° Fahrenheit




No Cover available

Artist: Bon Jovi
Year: 1985
Genre: Rock
Notes: Discogs
Add. Notes:
Watch Songs on: YouTube
Cover incl.: Yes
Encoder: FLAC
Bitrate: ~900 kBit/s (44.1 kHz/16 Bit/s)
Log & Cue incl.: Yes/Yes
Size: 343,7 MB
Password: “slam” (without ” “)


All Downloads/Hosters are compatible

Download 1
KatFile.com
Turbobit.net
FileFactory.com
Rapidgator.net
Download 2
KatFile.com
Turbobit.net
FileFactory.com
Rapidgator.net

Tracklist:

1 - In And Out Of Love - 4:24
2 - Price Of Love - 4:14
3 - Only Lonely - 4:59
4 - King Of The Mountain - 3:54
5 - Silent Night - 5:04
6 - Tokyo Road - 5:41
7 - Hardest Part Is The Night - 4:22
8 - Always Run To You - 4:59
9 - To The Fire - 4:26
10 - Secret Dreams - 4:52

EAC-Log, CUE-Sheed & NFO:

Click to open spoiler
Exact Audio Copy V1.3 from 2. September 2016

Отчёт EAC об извлечении, выполненном 7. декабря 2016, 19:31

Bon Jovi / 7800° Fahrenheit

Дисковод: Optiarc BD RW BD-5750H Adapter: 1 ID: 0

Режим чтения : Достоверность
Использование точного потока : Да
Отключение кэша аудио : Да
Использование указателей C2 : Нет

Коррекция смещения при чтении : 48
Способность читать области Lead-in и Lead-out : Нет
Заполнение пропущенных сэмплов тишиной : Да
Удаление блоков с тишиной в начале и конце : Нет
При вычислениях CRC использовались нулевые сэмплы : Да
Интерфейс : Встроенный Win32-интерфейс для Win NT/2000

Выходной формат : Пользовательский кодировщик
Выбранный битрейт : 1024 kBit/s
Качество : Высокий
Добавление ID3-тега : Нет
Утилита сжатия : C:\Program Files (x86)\Exact Audio Copy\FLAC\FLAC.EXE
Дополнительные параметры : -V -8 -T “Date=%year%” -T “Genre=%genre%” %source%

TOC извлечённого CD

Трек | Старт | Длительность | Начальный сектор | Конечный сектор
———————————————————————
1 | 0:00.32 | 4:24.08 | 32 | 19839
2 | 4:24.40 | 4:14.55 | 19840 | 38944
3 | 8:39.20 | 4:59.30 | 38945 | 61399
4 | 13:38.50 | 3:54.02 | 61400 | 78951
5 | 17:32.52 | 5:04.58 | 78952 | 101809
6 | 22:37.35 | 5:41.42 | 101810 | 127426
7 | 28:19.02 | 4:22.55 | 127427 | 147131
8 | 32:41.57 | 4:59.68 | 147132 | 169624
9 | 37:41.50 | 4:26.02 | 169625 | 189576
10 | 42:07.52 | 4:52.70 | 189577 | 211546

Характеристики диапазона извлечения и сообщения об ошибках

Выбранный диапазон

Имя файла D:\MUSIC-lossless\Bon_Jovi_Discography_Содержание&Оформление_раздачи\BJ_Discography\01 Studio albums\1985-7800° Fahrenheit\Bon Jovi – 7800° Fahrenheit.wav

Пиковый уровень 98.5 %
Скорость извлечения 6.5 X
Качество диапазона 100.0 %
CRC теста A0202905
CRC копии A0202905
Копирование… OK

Ошибок не произошло

AccurateRip: сводка

Трек 1 : извлечено точно (доверие 40) [4EEFAD9E] (AR v2)
Трек 2 : извлечено точно (доверие 39) [FABBE16D] (AR v2)
Трек 3 : извлечено точно (доверие 38) [7EE54D7F] (AR v2)
Трек 4 : извлечено точно (доверие 38) [B1D13B56] (AR v2)
Трек 5 : извлечено точно (доверие 38) [32D45BEC] (AR v2)
Трек 6 : извлечено точно (доверие 40) [DB7FE5F8] (AR v2)
Трек 7 : извлечено точно (доверие 39) [A138A8A3] (AR v2)
Трек 8 : извлечено точно (доверие 39) [D75DE8FF] (AR v2)
Трек 9 : извлечено точно (доверие 38) [43BC6F31] (AR v2)
Трек 10 : извлечено точно (доверие 38) [9E1E5DD0] (AR v2)

Все треки извлечены точно

Конец отчёта

—- CUETools DB Plugin V2.1.6

[CTDB TOCID: uLLRAAFHCHUtoostmV93Jif.4X8-] found
Submit result: already submitted
Track | CTDB Status
1 | (208/212) Accurately ripped
2 | (207/212) Accurately ripped
3 | (206/212) Accurately ripped
4 | (208/212) Accurately ripped
5 | (208/212) Accurately ripped
6 | (207/212) Accurately ripped
7 | (206/212) Accurately ripped
8 | (205/212) Accurately ripped
9 | (208/212) Accurately ripped
10 | (206/212) Accurately ripped

==== Контрольная сумма отчёта 6B63FFA5A6593049F6A0232F7D54E622C87A3B0E4F03E0B658BF746A33208C9E ====

REM GENRE “Hard Rock/Arena Rock”
REM DATE 1985
REM DISCID 790B040A
REM COMMENT “ExactAudioCopy v1.3”
PERFORMER “Bon Jovi”
TITLE “7800° Fahrenheit”
REM COMPOSER “”
FILE “Bon Jovi – 7800° Fahrenheit.flac” WAVE
TRACK 01 AUDIO
TITLE “In And Out Of Love”
PERFORMER “Bon Jovi”
REM COMPOSER “”
INDEX 00 00:00:00
INDEX 01 00:00:32
TRACK 02 AUDIO
TITLE “Price Of Love”
PERFORMER “Bon Jovi”
REM COMPOSER “”
INDEX 01 04:24:40
TRACK 03 AUDIO
TITLE “Only Lonely”
PERFORMER “Bon Jovi”
REM COMPOSER “”
INDEX 00 08:38:12
INDEX 01 08:39:20
TRACK 04 AUDIO
TITLE “King Of The Mountain”
PERFORMER “Bon Jovi”
REM COMPOSER “”
INDEX 00 13:36:57
INDEX 01 13:38:50
TRACK 05 AUDIO
TITLE “Silent Night”
PERFORMER “Bon Jovi”
REM COMPOSER “”
INDEX 00 17:31:30
INDEX 01 17:32:52
TRACK 06 AUDIO
TITLE “Tokyo Road”
PERFORMER “Bon Jovi”
REM COMPOSER “”
INDEX 00 22:36:00
INDEX 01 22:37:35
TRACK 07 AUDIO
TITLE “Hardest Part Is The Night”
PERFORMER “Bon Jovi”
REM COMPOSER “”
INDEX 00 28:18:52
INDEX 01 28:19:02
TRACK 08 AUDIO
TITLE “Always Run To You”
PERFORMER “Bon Jovi”
REM COMPOSER “”
INDEX 00 32:39:60
INDEX 01 32:41:57
TRACK 09 AUDIO
TITLE “To The Fire”
PERFORMER “Bon Jovi”
REM COMPOSER “”
INDEX 00 37:40:47
INDEX 01 37:41:50
TRACK 10 AUDIO
TITLE “Secret Dreams”
PERFORMER “Bon Jovi”
REM COMPOSER “”
INDEX 00 42:06:20
INDEX 01 42:07:52


Leave a Reply

Your email address will not be published. Required fields are marked *

This site uses Akismet to reduce spam. Learn how your comment data is processed.