Böhse Onkelz – Wir Schrieben Geschichte




Artist: Böhse Onkelz
Year: 2001
Genre: Rock
Notes: Discogs
Add. Notes:
Cover incl.: No
Encoder: FLAC
Bitrate: ~900 kBit/s (44.1 kHz/16 Bit/s)
Log & Cue incl.: Yes
Size: 622,1 MB
Password: “slam” (without ” “)


All Downloads/Hosters are compatible

Download 1
Turbobit.net
KatFile.com
Rapidgator.net
ddl.to
Download 2
Turbobit.net
KatFile.com
Rapidgator.net
ddl.to

Tracklist:

Wir Schrieben Geschichte
1-1 - Wir Schreiben Geschichte 
1-2 - Zieh Mit Den Wölfen 
1-3 - Wir Ham' Noch Lange Nicht Genug (Live) 
1-4 - L.T. Stoned 
1-5 - Alles F.a.M. 
1-6 - Der Himmel Kann Warten 
1-7 - Der Schrei Nach Freiheit 
1-8 - Für Immer 
1-9 - Ein Langer Weg 
1-10 - Das Rätsel Des Lebens 
1-11 - Scheißegal 
1-12 - Schliesse Deine Augen 
1-13 - Das Wunder Der Persönlichkeit 
1-14 - Ich Bin In Dir 
1-15 - Noreia 
1-16 - Sie Hat 'Nen Motor 
1-17 - Schöne Neue Welt 
Stephan
2-1 - Gehasst, Verdammt, Vergöttert 
Kevin
3-1 - Lieber Stehend Sterben 
Gonzo
4-1 - Erkennen Sie Die Melodie 
Pe
5-1 - Wir Ham' Noch Lange Nicht Genug

EAC-Log, CUE-Sheed & NFO:

Click to open spoiler
Exact Audio Copy V0.99 prebeta 4 from 23. January 2008

????? EAC ?? ??????????, ??????????? 13. ???? 2008, 14:30

B?hse Onkelz / Wir schrieben Geschichte

????????: Optiarc DVD RW AD-7170A Adapter: 0 ID: 0

????? ?????? : ?????????????
????????????? ??????? ?????? : ??
?????????? ???? ????? : ??
????????????? ?????????? C2 : ???

????????? ???????? ??? ?????? : 48
??????????? ?????? ??????? Lead-in ? Lead-out : ???
?????????? ??????????? ??????? ??????? : ??
???????? ?????? ? ??????? ? ?????? ? ????? : ???
??? ??????????? CRC ?????????????? ??????? ?????? : ??
????????? : ?????????? Win32-????????? ??? Win NT/2000

???????? ?????? : ???????????????? ??????????
????????? ??????? : 768 kBit/s
???????? : ???????
?????????? ID3-???? : ???
??????? ?????? : C:\Program Files\Exact Audio Copy\FLAC\FLAC.EXE
?????????????? ????????? : -6 -V -T “ARTIST=%a” -T “TITLE=%t” -T “ALBUM=%g” -T “DATE=%y” -T “TRACKNUMBER=%n” -T “GENRE=%m” -T “COMMENT=%e” %s -o %d

TOC ???????????? CD

???? | ????? | ???????????? | ????????? ?????? | ???????? ??????
———————————————————————
1 | 0:00.00 | 4:02.62 | 0 | 18211
2 | 4:02.62 | 4:07.25 | 18212 | 36761
3 | 8:10.12 | 4:52.63 | 36762 | 58724
4 | 13:03.00 | 3:11.62 | 58725 | 73111
5 | 16:14.62 | 3:36.63 | 73112 | 89374
6 | 19:51.50 | 4:15.25 | 89375 | 108524
7 | 24:07.00 | 3:46.12 | 108525 | 125486
8 | 27:53.12 | 5:37.25 | 125487 | 150786
9 | 33:30.37 | 4:21.00 | 150787 | 170361
10 | 37:51.37 | 3:34.13 | 170362 | 186424
11 | 41:25.50 | 2:36.62 | 186425 | 198186
12 | 44:02.37 | 5:27.50 | 198187 | 222761
13 | 49:30.12 | 5:13.13 | 222762 | 246249
14 | 54:43.25 | 3:51.00 | 246250 | 263574
15 | 58:34.25 | 3:24.12 | 263575 | 278886
16 | 61:58.37 | 2:56.38 | 278887 | 292124
17 | 64:55.00 | 4:36.74 | 292125 | 312898

?????????????? ????????? ?????????? ? ????????? ?? ???????

????????? ????????

??? ????? D:\My torrents\Boehse_Onkelz_lossless2\2001-Wir schrieben die Geschichte (Aufnahmen aus den Jahren 1991-1993)\B?hse Onkelz – Wir schrieben Geschichte.wav

??????? ??????? 100.0 %
???????? ????????? 100.0 %
CRC ????? D452CC7F
???????????… OK

?????? ?? ?????????

AccurateRip: ??????

???? 1 ??? ? ???? ??????
???? 2 ??? ? ???? ??????
???? 3 ??? ? ???? ??????
???? 4 ??? ? ???? ??????
???? 5 ??? ? ???? ??????
???? 6 ??? ? ???? ??????
???? 7 ??? ? ???? ??????
???? 8 ??? ? ???? ??????
???? 9 ??? ? ???? ??????
???? 10 ??? ? ???? ??????
???? 11 ??? ? ???? ??????
???? 12 ??? ? ???? ??????
???? 13 ??? ? ???? ??????
???? 14 ??? ? ???? ??????
???? 15 ??? ? ???? ??????
???? 16 ??? ? ???? ??????
???? 17 ??? ? ???? ??????

?? ?????? ????? ??? ? ???? AccurateRip

????? ??????

Exact Audio Copy V0.99 prebeta 4 from 23. January 2008

????? EAC ?? ??????????, ??????????? 13. ???? 2008, 15:43

Boehse Onkelz / Stephan – Gehasst, Verdammt, Vergoettert

????????: HL-DT-STDVDRAM GSA-4040B Adapter: 0 ID: 1

????? ?????? : ?????????????
????????????? ??????? ?????? : ??
?????????? ???? ????? : ???
????????????? ?????????? C2 : ??

??????????????? ???????? ??????/?????? : 0
??????????? ?????? ??????? Lead-in ? Lead-out : ???
?????????? ??????????? ??????? ??????? : ??
???????? ?????? ? ??????? ? ?????? ? ????? : ???
??? ??????????? CRC ?????????????? ??????? ?????? : ??
????????? : ?????????? Win32-????????? ??? Win NT/2000

???????? ?????? : ???????????????? ??????????
????????? ??????? : 768 kBit/s
???????? : ???????
?????????? ID3-???? : ???
??????? ?????? : C:\Program Files\Exact Audio Copy\FLAC\FLAC.EXE
?????????????? ????????? : -6 -V -T “ARTIST=%a” -T “TITLE=%t” -T “ALBUM=%g” -T “DATE=%y” -T “TRACKNUMBER=%n” -T “GENRE=%m” -T “COMMENT=%e” %s -o %d

TOC ???????????? CD

???? | ????? | ???????????? | ????????? ?????? | ???????? ??????
———————————————————————
1 | 0:00.00 | 3:06.32 | 0 | 13981

?????????????? ????????? ?????????? ? ????????? ?? ???????

????????? ????????

??? ????? D:\My torrents\Boehse_Onkelz_lossless2\1992-Stephan – Gehasst, Verdammt, Vergoettert\Boehse Onkelz – Stephan – Gehasst, Verdammt, Vergoettert.wav

??????? ??????? 99.5 %
???????? ????????? 100.0 %
CRC ????? 5D28D72B
???????????… OK

?????? ?? ?????????

????? ??????

Exact Audio Copy V0.99 prebeta 4 from 23. January 2008

????? EAC ?? ??????????, ??????????? 13. ???? 2008, 14:38

Boehse Onkelz / Pe – Wir ham’ noch lange nicht genug

????????: HL-DT-STDVDRAM GSA-4040B Adapter: 0 ID: 1

????? ?????? : ?????????????
????????????? ??????? ?????? : ??
?????????? ???? ????? : ???
????????????? ?????????? C2 : ??

??????????????? ???????? ??????/?????? : 0
??????????? ?????? ??????? Lead-in ? Lead-out : ???
?????????? ??????????? ??????? ??????? : ??
???????? ?????? ? ??????? ? ?????? ? ????? : ???
??? ??????????? CRC ?????????????? ??????? ?????? : ??
????????? : ?????????? Win32-????????? ??? Win NT/2000

???????? ?????? : ???????????????? ??????????
????????? ??????? : 768 kBit/s
???????? : ???????
?????????? ID3-???? : ???
??????? ?????? : C:\Program Files\Exact Audio Copy\FLAC\FLAC.EXE
?????????????? ????????? : -6 -V -T “ARTIST=%a” -T “TITLE=%t” -T “ALBUM=%g” -T “DATE=%y” -T “TRACKNUMBER=%n” -T “GENRE=%m” -T “COMMENT=%e” %s -o %d

TOC ???????????? CD

???? | ????? | ???????????? | ????????? ?????? | ???????? ??????
———————————————————————
1 | 0:00.00 | 4:51.55 | 0 | 21879

?????????????? ????????? ?????????? ? ????????? ?? ???????

????????? ????????

??? ????? D:\My torrents\Boehse_Onkelz_lossless2\1991-Pe – Wir ham’ noch lange nicht genug\Boehse Onkelz – Pe – Wir ham’ noch lange nicht genug.wav

??????? ??????? 98.7 %
???????? ????????? 100.0 %
CRC ????? BD7ECA82
???????????… OK

?????? ?? ?????????

????? ??????

Exact Audio Copy V0.99 prebeta 4 from 23. January 2008

????? EAC ?? ??????????, ??????????? 13. ???? 2008, 15:39

Boehse Onkelz / Kevin – Lieber stehend sterben

????????: HL-DT-STDVDRAM GSA-4040B Adapter: 0 ID: 1

????? ?????? : ?????????????
????????????? ??????? ?????? : ??
?????????? ???? ????? : ???
????????????? ?????????? C2 : ??

??????????????? ???????? ??????/?????? : 0
??????????? ?????? ??????? Lead-in ? Lead-out : ???
?????????? ??????????? ??????? ??????? : ??
???????? ?????? ? ??????? ? ?????? ? ????? : ???
??? ??????????? CRC ?????????????? ??????? ?????? : ??
????????? : ?????????? Win32-????????? ??? Win NT/2000

???????? ?????? : ???????????????? ??????????
????????? ??????? : 768 kBit/s
???????? : ???????
?????????? ID3-???? : ???
??????? ?????? : C:\Program Files\Exact Audio Copy\FLAC\FLAC.EXE
?????????????? ????????? : -6 -V -T “ARTIST=%a” -T “TITLE=%t” -T “ALBUM=%g” -T “DATE=%y” -T “TRACKNUMBER=%n” -T “GENRE=%m” -T “COMMENT=%e” %s -o %d

TOC ???????????? CD

???? | ????? | ???????????? | ????????? ?????? | ???????? ??????
———————————————————————
1 | 0:00.00 | 3:59.38 | 0 | 17962

?????????????? ????????? ?????????? ? ????????? ?? ???????

????????? ????????

??? ????? D:\My torrents\Boehse_Onkelz_lossless2\1993-Kevin – Lieber stehend sterben\Boehse Onkelz – Kevin – Lieber stehend sterben.wav

??????? ??????? 99.3 %
???????? ????????? 100.0 %
CRC ????? C7A72BF1
???????????… OK

?????? ?? ?????????

????? ??????

Exact Audio Copy V0.99 prebeta 4 from 23. January 2008

????? EAC ?? ??????????, ??????????? 13. ???? 2008, 14:41

Boehse Onkelz / Gonzo – Erkennen Sie die Melodie

????????: HL-DT-STDVDRAM GSA-4040B Adapter: 0 ID: 1

????? ?????? : ?????????????
????????????? ??????? ?????? : ??
?????????? ???? ????? : ???
????????????? ?????????? C2 : ??

??????????????? ???????? ??????/?????? : 0
??????????? ?????? ??????? Lead-in ? Lead-out : ???
?????????? ??????????? ??????? ??????? : ??
???????? ?????? ? ??????? ? ?????? ? ????? : ???
??? ??????????? CRC ?????????????? ??????? ?????? : ??
????????? : ?????????? Win32-????????? ??? Win NT/2000

???????? ?????? : ???????????????? ??????????
????????? ??????? : 768 kBit/s
???????? : ???????
?????????? ID3-???? : ???
??????? ?????? : C:\Program Files\Exact Audio Copy\FLAC\FLAC.EXE
?????????????? ????????? : -6 -V -T “ARTIST=%a” -T “TITLE=%t” -T “ALBUM=%g” -T “DATE=%y” -T “TRACKNUMBER=%n” -T “GENRE=%m” -T “COMMENT=%e” %s -o %d

TOC ???????????? CD

???? | ????? | ???????????? | ????????? ?????? | ???????? ??????
———————————————————————
1 | 0:00.00 | 4:06.14 | 0 | 18463

?????????????? ????????? ?????????? ? ????????? ?? ???????

????????? ????????

??? ????? D:\My torrents\Boehse_Onkelz_lossless2\1993-Gonzo – Erkennen Sie die Melodie\Boehse Onkelz – Gonzo – Erkennen Sie die Melodie.wav

??????? ??????? 98.2 %
???????? ????????? 100.0 %
CRC ????? F9EDB8B1
???????????… OK

?????? ?? ?????????

????? ??????

REM GENRE Rock
REM DATE 1993
REM DISCID 0200EF01
REM COMMENT “ExactAudioCopy v0.99pb4”
PERFORMER “Boehse Onkelz”
TITLE “Kevin – Lieber stehend sterben”
FILE “Boehse Onkelz – Kevin – Lieber stehend sterben.flac” WAVE
TRACK 01 AUDIO
TITLE “Boehse Onkelz-Kevin – Lieber stehend sterben”
PERFORMER “Boehse Onkelz”
INDEX 01 00:00:00

REM GENRE Rock
REM DATE 1993
REM DISCID 0200F601
REM COMMENT “ExactAudioCopy v0.99pb4”
PERFORMER “Boehse Onkelz”
TITLE “Gonzo – Erkennen Sie die Melodie”
FILE “Boehse Onkelz – Gonzo – Erkennen Sie die Melodie.flac” WAVE
TRACK 01 AUDIO
TITLE “Boehse Onkelz-Gonzo – Erkennen Sie die Melodie”
PERFORMER “Boehse Onkelz”
INDEX 01 00:00:00

REM GENRE Rock
REM DATE 2001
REM DISCID 0D104B11
REM COMMENT “ExactAudioCopy v0.99pb4”
PERFORMER “Böhse Onkelz”
TITLE “Wir schrieben Geschichte”
FILE “Böhse Onkelz – Wir schrieben Geschichte.flac” WAVE
TRACK 01 AUDIO
TITLE “Wir Schreiben Geschichte (1992)”
PERFORMER “Böhse Onkelz”
INDEX 01 00:00:00
TRACK 02 AUDIO
TITLE “Zieh Mit Den Wölfen (1991)”
PERFORMER “Böhse Onkelz”
INDEX 00 04:01:38
INDEX 01 04:02:62
TRACK 03 AUDIO
TITLE “Wir Ham’ Noch Lange Nicht Genug (Live) (1991)”
PERFORMER “Böhse Onkelz”
INDEX 00 08:08:67
INDEX 01 08:10:12
TRACK 04 AUDIO
TITLE “L.T. Stoned (1991)”
PERFORMER “Böhse Onkelz”
INDEX 00 13:01:28
INDEX 01 13:03:00
TRACK 05 AUDIO
TITLE “Alles F.a.M. (1993)”
PERFORMER “Böhse Onkelz”
INDEX 00 16:13:46
INDEX 01 16:14:62
TRACK 06 AUDIO
TITLE “Der Himmel Kann Warten (1993)”
PERFORMER “Böhse Onkelz”
INDEX 00 19:50:16
INDEX 01 19:51:50
TRACK 07 AUDIO
TITLE “Der Schrei Nach Freiheit (1992)”
PERFORMER “Böhse Onkelz”
INDEX 00 24:05:44
INDEX 01 24:07:00
TRACK 08 AUDIO
TITLE “Für Immer (1993)”
PERFORMER “Böhse Onkelz”
INDEX 00 27:51:58
INDEX 01 27:53:12
TRACK 09 AUDIO
TITLE “Ein Langer Weg (1992)”
PERFORMER “Böhse Onkelz”
INDEX 00 33:28:74
INDEX 01 33:30:37
TRACK 10 AUDIO
TITLE “Das Rätsel Des Lebens (1993)”
PERFORMER “Böhse Onkelz”
INDEX 00 37:50:01
INDEX 01 37:51:37
TRACK 11 AUDIO
TITLE “Scheißegal (1992)”
PERFORMER “Böhse Onkelz”
INDEX 00 41:24:16
INDEX 01 41:25:50
TRACK 12 AUDIO
TITLE “Schliesse Deine Augen (1992)”
PERFORMER “Böhse Onkelz”
INDEX 00 44:01:05
INDEX 01 44:02:37
TRACK 13 AUDIO
TITLE “Das Wunder Der Persönlichkeit (1993)”
PERFORMER “Böhse Onkelz”
INDEX 00 49:28:53
INDEX 01 49:30:12
TRACK 14 AUDIO
TITLE “Ich Bin In Dir (1992)”
PERFORMER “Böhse Onkelz”
INDEX 00 54:41:66
INDEX 01 54:43:25
TRACK 15 AUDIO
TITLE “Noreia (1992)”
PERFORMER “Böhse Onkelz”
INDEX 00 58:33:05
INDEX 01 58:34:25
TRACK 16 AUDIO
TITLE “Sie Hat ‘Nen Motor (1993)”
PERFORMER “Böhse Onkelz”
INDEX 00 61:57:22
INDEX 01 61:58:37
TRACK 17 AUDIO
TITLE “Schöne Neue Welt (1993)”
PERFORMER “Böhse Onkelz”
INDEX 00 64:53:53
INDEX 01 64:55:00

REM GENRE Rock
REM DATE 1992
REM DISCID 0200BA01
REM COMMENT “ExactAudioCopy v0.99pb4”
PERFORMER “Boehse Onkelz”
TITLE “Stephan – Gehasst, Verdammt, Vergoettert”
FILE “Boehse Onkelz – Stephan – Gehasst, Verdammt, Vergoettert.flac” WAVE
TRACK 01 AUDIO
TITLE “Track01”
PERFORMER “Boehse Onkelz”
INDEX 01 00:00:00

REM GENRE Rock
REM DATE 1991
REM DISCID 02012301
REM COMMENT “ExactAudioCopy v0.99pb4”
PERFORMER “Boehse Onkelz”
TITLE “Pe – Wir ham’ noch lange nicht genug”
FILE “Boehse Onkelz – Pe – Wir ham’ noch lange nicht genug.flac” WAVE
TRACK 01 AUDIO
TITLE “Boehse Onkelz-Pe – Wir ham’ noch lange nicht genug”
PERFORMER “Boehse Onkelz”
INDEX 01 00:00:00


Leave a Reply

Your email address will not be published. Required fields are marked *

This site uses Akismet to reduce spam. Learn how your comment data is processed.