Böhse Onkelz – Wir ham’ noch lange nicht genug




Artist: Böhse Onkelz
Year: 1991
Genre: Rock
Notes: Discogs
Add. Notes:
Cover incl.: Yes
Encoder: FLAC
Bitrate: ~1000 kBit/s (44.1 kHz/16 Bit/s)
Log & Cue incl.: Yes
Size: 394,09 MB
Password: “slam” (without ” “)


All Downloads/Hosters are compatible

Download 1
Turbobit.net
KatFile.com
Rapidgator.net
ddl.to
Download 2
Turbobit.net
KatFile.com
Rapidgator.net
ddl.to

Tracklist:

1 - Wir Ham' Noch Lange Nicht 
Genug - 4:50
2 - Eine Dieser Nächte - 4:15
3 - Das Ist Mein Leben - 4:11
4 - Nur Die Besten Sterben Jung - 3:55
5 - Ganz Egal - 5:08
6 - Zieh' Mit Den Wölfen - 4:06
7 - Zeig' Mir Den Weg - 3:54
8 - Das Erste Blut - 3:49
9 - Wieder Mal 'nen Tag Verschenkt - 4:04
10 - Ach, Sie Suchen Streit - 3:09
11 - 3'52 - 3:51
12 - Wir Sind Immer Für Euch Da - 3:58
13 - Wir Sind Nicht Allein - 4:19
14 - Lt. Stoned - 3:11

EAC-Log, CUE-Sheed & NFO:

Click to open spoiler
Exact Audio Copy V0.99 prebeta 4 from 23. January 2008

Отчёт EAC об извлечении, выполненном 8. мая 2008, 18:45

Boehse Onkelz / Wir ham’ noch lange nicht genug

Дисковод: Optiarc DVD RW AD-7170A Adapter: 0 ID: 0

Режим чтения : Достоверность
Использование точного потока : Да
Отключение кэша аудио : Да
Использование указателей C2 : Нет

Коррекция смещения при чтении : 48
Способность читать области Lead-in и Lead-out : Нет
Заполнение пропущенных сэмплов тишиной : Да
Удаление блоков с тишиной в начале и конце : Нет
При вычислениях CRC использовались нулевые сэмплы : Да
Интерфейс : Встроенный Win32-интерфейс для Win NT/2000

Выходной формат : Пользовательский кодировщик
Выбранный битрейт : 768 kBit/s
Качество : Высокий
Добавление ID3-тэга : Нет
Утилита сжатия : C:\Program Files\Exact Audio Copy\FLAC\FLAC.EXE
Дополнительные параметры : -6 -V -T “ARTIST=%a” -T “TITLE=%t” -T “ALBUM=%g” -T “DATE=%y” -T “TRACKNUMBER=%n” -T “GENRE=%m” -T “COMMENT=%e” %s -o %d

TOC извлечённого CD

Трек | Старт | Длительность | Начальный сектор | Конечный сектор
———————————————————————
1 | 0:00.00 | 4:52.00 | 0 | 21899
2 | 4:52.00 | 4:17.00 | 21900 | 41174
3 | 9:09.00 | 4:13.62 | 41175 | 60211
4 | 13:22.62 | 3:57.63 | 60212 | 78049
5 | 17:20.50 | 5:10.25 | 78050 | 101324
6 | 22:31.00 | 4:08.00 | 101325 | 119924
7 | 26:39.00 | 3:56.62 | 119925 | 137686
8 | 30:35.62 | 3:51.63 | 137687 | 155074
9 | 34:27.50 | 4:06.62 | 155075 | 173586
10 | 38:34.37 | 3:11.25 | 173587 | 187936
11 | 41:45.62 | 3:53.38 | 187937 | 205449
12 | 45:39.25 | 4:01.00 | 205450 | 223524
13 | 49:40.25 | 4:21.50 | 223525 | 243149
14 | 54:02.00 | 3:11.52 | 243150 | 257526

Характеристики диапазона извлечения и сообщения об ошибках

Выбранный диапазон

Имя файла D:\My torrents\Boehse Onkelz\BO_-_5_albums\Wir ham’ noch lange nicht genug (1991)\Boehse Onkelz – Wir ham’ noch lange nicht genug.wav

Пиковый уровень 99.8 %
Качество диапазона 100.0 %
CRC копии 1C70CE62
Копирование… OK

Ошибок не произошло

AccurateRip: сводка

Трек 1 точность не определена (достоверность 3) [025F3F89], AccurateRip вернул [2A0A0188]
Трек 2 точность не определена (достоверность 3) [6086366A], AccurateRip вернул [4B5CBF10]
Трек 3 точность не определена (достоверность 3) [007561D5], AccurateRip вернул [8E4C20D2]
Трек 4 точность не определена (достоверность 3) [57B713EA], AccurateRip вернул [B2C570AF]
Трек 5 точность не определена (достоверность 3) [8097D9C9], AccurateRip вернул [79B0676A]
Трек 6 точность не определена (достоверность 3) [224E16FA], AccurateRip вернул [09C477C6]
Трек 7 точность не определена (достоверность 3) [A78073C5], AccurateRip вернул [083AF24D]
Трек 8 точность не определена (достоверность 3) [BD466ECC], AccurateRip вернул [25D166AC]
Трек 9 точность не определена (достоверность 3) [E2682B21], AccurateRip вернул [328F7FD5]
Трек 10 точность не определена (достоверность 3) [FE0E6CBF], AccurateRip вернул [FF99D734]
Трек 11 точность не определена (достоверность 3) [90A9AF5D], AccurateRip вернул [1928E732]
Трек 12 точность не определена (достоверность 3) [17332581], AccurateRip вернул [5D6DF68A]
Трек 13 точность не определена (достоверность 3) [8B325215], AccurateRip вернул [5FAB883C]
Трек 14 точность не определена (достоверность 3) [60F5F02F], AccurateRip вернул [2863228A]

Ни один трек не прошёл проверки на точность
В вашей базе может быть иной вариант штамповки диска

Конец отчёта

REM GENRE Rock
REM DATE 1991
REM DISCID B10D690E
REM COMMENT “ExactAudioCopy v0.99pb4”
PERFORMER “Boehse Onkelz”
TITLE “Wir ham’ noch lange nicht genug”
FILE “Boehse Onkelz – Wir ham’ noch lange nicht genug.flac” WAVE
TRACK 01 AUDIO
TITLE “Wir ham’ noch lange nicht genug”
PERFORMER “Boehse Onkelz”
INDEX 01 00:00:00
TRACK 02 AUDIO
TITLE “Eine dieser Naechte”
PERFORMER “Boehse Onkelz”
INDEX 00 04:50:22
INDEX 01 04:52:00
TRACK 03 AUDIO
TITLE “Das ist mein Leben”
PERFORMER “Boehse Onkelz”
INDEX 00 09:07:15
INDEX 01 09:09:00
TRACK 04 AUDIO
TITLE “Nur die Besten sterben jung”
PERFORMER “Boehse Onkelz”
INDEX 00 13:20:72
INDEX 01 13:22:62
TRACK 05 AUDIO
TITLE “Ganz egal”
PERFORMER “Boehse Onkelz”
INDEX 00 17:18:52
INDEX 01 17:20:50
TRACK 06 AUDIO
TITLE “Zieh’ mit den Wölfen”
PERFORMER “Boehse Onkelz”
INDEX 00 22:29:37
INDEX 01 22:31:00
TRACK 07 AUDIO
TITLE “Zeig’ mir den Weg”
PERFORMER “Boehse Onkelz”
INDEX 00 26:37:60
INDEX 01 26:39:00
TRACK 08 AUDIO
TITLE “Das erste Blut”
PERFORMER “Boehse Onkelz”
INDEX 00 30:33:72
INDEX 01 30:35:62
TRACK 09 AUDIO
TITLE “Wieder mal ‘nen Tag verschenkt”
PERFORMER “Boehse Onkelz”
INDEX 00 34:25:65
INDEX 01 34:27:50
TRACK 10 AUDIO
TITLE “Ach, sie suchen Streit”
PERFORMER “Boehse Onkelz”
INDEX 00 38:32:45
INDEX 01 38:34:37
TRACK 11 AUDIO
TITLE “3’52”
PERFORMER “Boehse Onkelz”
INDEX 00 41:44:02
INDEX 01 41:45:62
TRACK 12 AUDIO
TITLE “Wir sind immer für euch da”
PERFORMER “Boehse Onkelz”
INDEX 00 45:37:25
INDEX 01 45:39:25
TRACK 13 AUDIO
TITLE “Wir sind nicht allein”
PERFORMER “Boehse Onkelz”
INDEX 00 49:38:30
INDEX 01 49:40:25
TRACK 14 AUDIO
TITLE “Lt. Stoned”
PERFORMER “Boehse Onkelz”
INDEX 00 54:00:12
INDEX 01 54:02:00


Leave a Reply

Your email address will not be published. Required fields are marked *

This site uses Akismet to reduce spam. Learn how your comment data is processed.