Böhse Onkelz – Weiss




Artist: Böhse Onkelz
Year: 1993
Genre: Rock
Notes: Discogs
Add. Notes:
Cover incl.: Yes
Encoder: FLAC
Bitrate: ~900 kBit/s (44.1 kHz/16 Bit/s)
Log & Cue incl.: Yes
Size: 325,11 MB
Password: “slam” (without ” “)


All Downloads/Hosters are compatible

Download 1
Turbobit.net
KatFile.com
Rapidgator.net
ddl.to
Download 2
Turbobit.net
KatFile.com
Rapidgator.net
ddl.to

Tracklist:

1 - Lieber Stehend Sterben - 3:48
2 - Entfache Dieses Feuer - 4:19
3 - Das Wunder Der Persönlichkeit - 
5:12
4 - Fahrt Zur Hölle - 3:31
5 - Alles F. a. M. - 3:36
6 - Willkommen - 3:04
7 - Für Immer - 5:33
8 - Deutschland Im Herbst - 4:29
9 - Es - 4:30
10 - Sie Hat nen Motor - 2:55
11 - Tribute To Stevie - 1:50
12 - Schöne Neue Welt - 4:26

EAC-Log, CUE-Sheed & NFO:

Click to open spoiler
Exact Audio Copy V0.99 prebeta 4 from 23. January 2008

Отчёт EAC об извлечении, выполненном 8. мая 2008, 16:54

Boehse Onkelz / Weisses Album

Дисковод: Optiarc DVD RW AD-7170A Adapter: 0 ID: 0

Режим чтения : Достоверность
Использование точного потока : Да
Отключение кэша аудио : Да
Использование указателей C2 : Нет

Коррекция смещения при чтении : 48
Способность читать области Lead-in и Lead-out : Нет
Заполнение пропущенных сэмплов тишиной : Да
Удаление блоков с тишиной в начале и конце : Нет
При вычислениях CRC использовались нулевые сэмплы : Да
Интерфейс : Встроенный Win32-интерфейс для Win NT/2000

Выходной формат : Пользовательский кодировщик
Выбранный битрейт : 768 kBit/s
Качество : Высокий
Добавление ID3-тэга : Нет
Утилита сжатия : C:\Program Files\Exact Audio Copy\FLAC\FLAC.EXE
Дополнительные параметры : -6 -V -T “ARTIST=%a” -T “TITLE=%t” -T “ALBUM=%g” -T “DATE=%y” -T “TRACKNUMBER=%n” -T “GENRE=%m” -T “COMMENT=%e” %s -o %d

TOC извлечённого CD

Трек | Старт | Длительность | Начальный сектор | Конечный сектор
———————————————————————
1 | 0:00.00 | 3:59.50 | 0 | 17974
2 | 3:59.50 | 4:21.00 | 17975 | 37549
3 | 8:20.50 | 5:14.50 | 37550 | 61149
4 | 13:35.25 | 3:33.25 | 61150 | 77149
5 | 17:08.50 | 3:38.25 | 77150 | 93524
6 | 20:47.00 | 3:07.50 | 93525 | 107599
7 | 23:54.50 | 5:38.00 | 107600 | 132949
8 | 29:32.50 | 4:34.00 | 132950 | 153499
9 | 34:06.50 | 4:33.00 | 153500 | 173974
10 | 38:39.50 | 2:56.32 | 173975 | 187206
11 | 41:36.07 | 1:51.30 | 187207 | 195561
12 | 43:27.37 | 4:37.55 | 195562 | 216391

Характеристики диапазона извлечения и сообщения об ошибках

Выбранный диапазон

Имя файла Q:\Boehse Onkelz\BO_-_5_albums\Weisses Album (1993)\Boehse Onkelz – Weisses Album.wav

Пиковый уровень 100.0 %
Качество диапазона 100.0 %
CRC копии 0EC2B005
Копирование… OK

Ошибок не произошло

AccurateRip: сводка

Трек 1 нет в базе данных
Трек 2 нет в базе данных
Трек 3 нет в базе данных
Трек 4 нет в базе данных
Трек 5 нет в базе данных
Трек 6 нет в базе данных
Трек 7 нет в базе данных
Трек 8 нет в базе данных
Трек 9 нет в базе данных
Трек 10 нет в базе данных
Трек 11 нет в базе данных
Трек 12 нет в базе данных

Ни одного трека нет в базе AccurateRip

Конец отчёта

^REM GENRE “Deutsch Rock”
REM DATE 1993
REM DISCID 930B450C
REM COMMENT “ExactAudioCopy v0.99pb4”
PERFORMER “Boehse Onkelz”
TITLE “Weisses Album”
FILE “Boehse Onkelz – Weisses Album.flac” WAVE
TRACK 01 AUDIO
TITLE “Lieber stehend sterben”
PERFORMER “Boehse Onkelz”
INDEX 01 00:00:00
TRACK 02 AUDIO
TITLE “Entfache dieses Feuer”
PERFORMER “Boehse Onkelz”
INDEX 00 03:57:32
INDEX 01 03:59:50
TRACK 03 AUDIO
TITLE “Das Wunder der Persoenlichkeit”
PERFORMER “Boehse Onkelz”
INDEX 00 08:18:37
INDEX 01 08:20:50
TRACK 04 AUDIO
TITLE “Fahrt zur Hoelle”
PERFORMER “Boehse Onkelz”
INDEX 00 13:32:72
INDEX 01 13:35:25
TRACK 05 AUDIO
TITLE “Alles F.A.M.”
PERFORMER “Boehse Onkelz”
INDEX 00 17:06:27
INDEX 01 17:08:50
TRACK 06 AUDIO
TITLE “Willkommen”
PERFORMER “Boehse Onkelz”
INDEX 00 20:44:55
INDEX 01 20:47:00
TRACK 07 AUDIO
TITLE “Fuer Immer”
PERFORMER “Boehse Onkelz”
INDEX 00 23:52:30
INDEX 01 23:54:50
TRACK 08 AUDIO
TITLE “Deutschland im Herbst”
PERFORMER “Boehse Onkelz”
INDEX 00 29:30:20
INDEX 01 29:32:50
TRACK 09 AUDIO
TITLE “Es”
PERFORMER “Boehse Onkelz”
INDEX 00 34:04:20
INDEX 01 34:06:50
TRACK 10 AUDIO
TITLE “Sie hat ‘nen Motor”
PERFORMER “Boehse Onkelz”
INDEX 00 38:37:15
INDEX 01 38:39:50
TRACK 11 AUDIO
TITLE “Tribute to Stevie”
PERFORMER “Boehse Onkelz”
INDEX 01 41:36:07
TRACK 12 AUDIO
TITLE “Schoene neue Welt”
PERFORMER “Boehse Onkelz”
INDEX 00 43:25:07
INDEX 01 43:27:37


Leave a Reply

Your email address will not be published. Required fields are marked *

This site uses Akismet to reduce spam. Learn how your comment data is processed.