Böhse Onkelz – Viva Los Tioz




Artist: Böhse Onkelz
Year: 1998
Genre: Oi
Notes: Discogs
Add. Notes:
Cover incl.: Yes
Encoder: FLAC
Bitrate: ~1000 kBit/s (44.1 kHz/16 Bit/s)
Log & Cue incl.: Yes
Size: 481,64 MB
Password: “slam” (without ” “)


All Downloads/Hosters are compatible

Download 1
Turbobit.net
KatFile.com
Rapidgator.net
ddl.to
Download 2
Turbobit.net
KatFile.com
Rapidgator.net
ddl.to

Tracklist:

1 - Matapalo - Parte Uno - 2:52
2 - Viva Los Tioz - 4:26
3 - Leere Worte - 4:20
4 - Weit Weg - 5:16
5 - Das Geheimnis Meiner Kraft - 3:43
6 - Scheisse Passiert - 4:13
7 - Terpentin - 3:54
8 - Ohne Mich - 5:38
9 - Der Platz Neben Mir - Part I + II - 9:37
10 - Der Preis Des Lebens - 7:00
11 - Bin Ich Nur Glücklich, Wenn Es Schmerzt - 5:27
12 - Wenn Du Wirklich Willst - 5:43
13 - Matapalo - Parte Dos - 3:35

EAC-Log, CUE-Sheed & NFO:

Click to open spoiler
Exact Audio Copy V0.99 prebeta 4 from 23. January 2008

Отчёт EAC об извлечении, выполненном 4. мая 2008, 19:37

Boehse Onkelz / Viva Los Tioz

Дисковод: Optiarc DVD RW AD-7170A Adapter: 0 ID: 0

Режим чтения : Достоверность
Использование точного потока : Да
Отключение кэша аудио : Да
Использование указателей C2 : Нет

Коррекция смещения при чтении : 48
Способность читать области Lead-in и Lead-out : Нет
Заполнение пропущенных сэмплов тишиной : Да
Удаление блоков с тишиной в начале и конце : Нет
При вычислениях CRC использовались нулевые сэмплы : Да
Интерфейс : Встроенный Win32-интерфейс для Win NT/2000

Выходной формат : Пользовательский кодировщик
Выбранный битрейт : 768 kBit/s
Качество : Высокий
Добавление ID3-тэга : Нет
Утилита сжатия : C:\Program Files\Exact Audio Copy\FLAC\FLAC.EXE
Дополнительные параметры : -6 -V -T “ARTIST=%a” -T “TITLE=%t” -T “ALBUM=%g” -T “DATE=%y” -T “TRACKNUMBER=%n” -T “GENRE=%m” -T “COMMENT=%e” %s -o %d

TOC извлечённого CD

Трек | Старт | Длительность | Начальный сектор | Конечный сектор
———————————————————————
1 | 0:00.32 | 3:17.45 | 32 | 14851
2 | 3:18.02 | 3:56.35 | 14852 | 32586
3 | 7:14.37 | 4:22.70 | 32587 | 52306
4 | 11:37.32 | 5:20.05 | 52307 | 76311
5 | 16:57.37 | 3:48.70 | 76312 | 93481
6 | 20:46.32 | 4:27.18 | 93482 | 113524
7 | 25:13.50 | 3:57.07 | 113525 | 131306
8 | 29:10.57 | 5:48.38 | 131307 | 157444
9 | 34:59.20 | 10:40.62 | 157445 | 205506
10 | 45:40.07 | 7:03.60 | 205507 | 237291
11 | 52:43.67 | 5:37.40 | 237292 | 262606
12 | 58:21.32 | 5:44.48 | 262607 | 288454
13 | 64:06.05 | 3:02.27 | 288455 | 302131

Характеристики диапазона извлечения и сообщения об ошибках

Выбранный диапазон

Имя файла Q:\Boehse Onkelz\Viva Los Tioz (1998)\Boehse Onkelz – Viva Los Tioz.wav

Пиковый уровень 99.6 %
Качество диапазона 99.9 %
CRC копии E03E0FB7
Копирование… OK

Ошибок не произошло

AccurateRip: сводка

Трек 1 точность не определена (достоверность 15) [8C65BA40], AccurateRip вернул [F1D62962]
Трек 2 точное извлечение (доверие 14) [E96746E5]
Трек 3 точное извлечение (доверие 14) [679C8351]
Трек 4 точное извлечение (доверие 14) [2E300811]
Трек 5 точное извлечение (доверие 14) [C4222E7A]
Трек 6 точное извлечение (доверие 14) [BCE06482]
Трек 7 точное извлечение (доверие 14) [0D2A22D5]
Трек 8 точное извлечение (доверие 14) [F8D8FDB1]
Трек 9 точное извлечение (доверие 14) [87F4C632]
Трек 10 точное извлечение (доверие 14) [60FBCA5B]
Трек 11 точное извлечение (доверие 14) [FEB35753]
Трек 12 точное извлечение (доверие 14) [6A287995]
Трек 13 точное извлечение (доверие 15) [6EF57AAB]

12 трек(и) скопированы точно
1 трек(и) не удалось проверить на точность

Некоторые треки не прошли проверку на точность

Конец отчёта

REM GENRE Rock
REM DATE 1998
REM DISCID A20FBC0D
REM COMMENT “ExactAudioCopy v0.99pb4”
PERFORMER “Boehse Onkelz”
TITLE “Viva Los Tioz”
FILE “Boehse Onkelz – Viva Los Tioz.flac” WAVE
TRACK 01 AUDIO
TITLE “Matapalo – Parte Uno”
PERFORMER “Boehse Onkelz”
INDEX 00 00:00:00
INDEX 01 00:00:32
TRACK 02 AUDIO
TITLE “Viva Los Tioz”
PERFORMER “Boehse Onkelz”
INDEX 01 03:18:02
TRACK 03 AUDIO
TITLE “Leere Worte”
PERFORMER “Boehse Onkelz”
INDEX 00 07:13:32
INDEX 01 07:14:37
TRACK 04 AUDIO
TITLE “Weit weg”
PERFORMER “Boehse Onkelz”
INDEX 00 11:35:42
INDEX 01 11:37:32
TRACK 05 AUDIO
TITLE “Das Geheimnis meiner Kraft”
PERFORMER “Boehse Onkelz”
INDEX 00 16:55:50
INDEX 01 16:57:37
TRACK 06 AUDIO
TITLE “Scheiße passiert”
PERFORMER “Boehse Onkelz”
INDEX 00 20:44:50
INDEX 01 20:46:32
TRACK 07 AUDIO
TITLE “Terpentin”
PERFORMER “Boehse Onkelz”
INDEX 00 25:11:57
INDEX 01 25:13:50
TRACK 08 AUDIO
TITLE “Ohne mich”
PERFORMER “Boehse Onkelz”
INDEX 00 29:08:62
INDEX 01 29:10:57
TRACK 09 AUDIO
TITLE “Der Platz neben mir”
PERFORMER “Boehse Onkelz”
INDEX 00 34:57:32
INDEX 01 34:59:20
TRACK 10 AUDIO
TITLE “Der Preis des Lebens”
PERFORMER “Boehse Onkelz”
INDEX 00 45:38:17
INDEX 01 45:40:07
TRACK 11 AUDIO
TITLE “Bin ich nur glücklich, wenn es schmerzt?”
PERFORMER “Boehse Onkelz”
INDEX 00 52:41:60
INDEX 01 52:43:67
TRACK 12 AUDIO
TITLE “Wenn du wirklich willst”
PERFORMER “Boehse Onkelz”
INDEX 00 58:19:25
INDEX 01 58:21:32
TRACK 13 AUDIO
TITLE “Matapalo – Parte Dos”
PERFORMER “Boehse Onkelz”
INDEX 00 64:03:22
INDEX 01 64:06:05


Leave a Reply

Your email address will not be published. Required fields are marked *

Enter the text from the image below
 

This site uses Akismet to reduce spam. Learn how your comment data is processed.