Böhse Onkelz – Tour 2000




Artist: Böhse Onkelz
Year: 2001
Genre: Rock
Notes: Discogs
Add. Notes:
Cover incl.: Yes
Encoder: FLAC
Bitrate: ~1000 kBit/s (44.1 kHz/16 Bit/s)
Log & Cue incl.: Yes
Size: 567,12 MB
Password: “slam” (without ” “)


All Downloads/Hosters are compatible

Download 1
Turbobit.net
KatFile.com
Rapidgator.net
ddl.to
Download 2
Turbobit.net
KatFile.com
Rapidgator.net
ddl.to

Tracklist:

1 - 28 (Intro) - 
2 - Dunkler Ort - 
3 - Onkelz 2000 - 
4 - Guten Tag - 
5 - Koma - 
6 - Terpentin - 
7 - Nur Die Besten Sterben Jung - 
8 - Schutzgeist Der Scheiße - 
9 - Keine Ist Wie Du - 
10 - Bin Ich Nur Glücklich Wenn Es 
Schmerzt - 
11 - Stunde Des Siegers - 
12 - Kirche - 
13 - Hier Sind Die Onkelz - 
14 - Medley 
15 - Mexico - 
16 - Erinnerungen

EAC-Log, CUE-Sheed & NFO:

Click to open spoiler
Exact Audio Copy V0.99 prebeta 4 from 23. January 2008

Отчёт EAC об извлечении, выполненном 21. декабря 2008, 11:54

Boehse Onkelz / Tour 2000

Дисковод: Optiarc DVD RW AD-7170A Adapter: 0 ID: 0

Режим чтения : Достоверность
Использование точного потока : Да
Отключение кэша аудио : Да
Использование указателей C2 : Нет

Коррекция смещения при чтении : 48
Способность читать области Lead-in и Lead-out : Нет
Заполнение пропущенных сэмплов тишиной : Да
Удаление блоков с тишиной в начале и конце : Нет
При вычислениях CRC использовались нулевые сэмплы : Да
Интерфейс : Встроенный Win32-интерфейс для Win NT/2000

Выходной формат : Пользовательский кодировщик
Выбранный битрейт : 1024 kBit/s
Качество : Высокий
Добавление ID3-тэга : Да
Утилита сжатия : C:\Program Files\Exact Audio Copy\FLAC\FLAC.EXE
Дополнительные параметры : -6 -V -T “ARTIST=%a” -T “TITLE=%t” -T “ALBUM=%g” -T “DATE=%y” -T “TRACKNUMBER=%n” -T “GENRE=%m” -T “COMMENT=%e” %s -o %d

TOC извлечённого CD

Трек | Старт | Длительность | Начальный сектор | Конечный сектор
———————————————————————
1 | 0:00.32 | 4:35.59 | 32 | 20715
2 | 4:36.16 | 4:16.06 | 20716 | 39921
3 | 8:52.22 | 4:57.48 | 39922 | 62244
4 | 13:49.70 | 4:45.64 | 62245 | 83683
5 | 18:35.59 | 5:16.11 | 83684 | 107394
6 | 23:51.70 | 4:03.23 | 107395 | 125642
7 | 27:55.18 | 4:21.56 | 125643 | 145273
8 | 32:16.74 | 4:40.56 | 145274 | 166329
9 | 36:57.55 | 3:28.69 | 166330 | 181998
10 | 40:26.49 | 5:40.41 | 181999 | 207539
11 | 46:07.15 | 4:54.28 | 207540 | 229617
12 | 51:01.43 | 5:49.64 | 229618 | 255856
13 | 56:51.32 | 4:50.63 | 255857 | 277669
14 | 61:42.20 | 6:50.09 | 277670 | 308428
15 | 68:32.29 | 4:05.31 | 308429 | 326834
16 | 72:37.60 | 5:51.00 | 326835 | 353159

Характеристики диапазона извлечения и сообщения об ошибках

Выбранный диапазон

Имя файла E:\BO\2001-Tour 2000\Boehse Onkelz – Tour 2000.wav

Пиковый уровень 100.0 %
Качество диапазона 100.0 %
CRC копии AB9630B7
Копирование… OK

Ошибок не произошло

Конец отчёта

REM GENRE “Hard Rock”
REM DATE 2001
REM DISCID E4126410
REM COMMENT “ExactAudioCopy v0.99pb4”
PERFORMER “Boehse Onkelz”
TITLE “Tour 2000”
FILE “Boehse Onkelz – Tour 2000.flac” WAVE
TRACK 01 AUDIO
TITLE “28 (Intro)”
PERFORMER “Boehse Onkelz”
INDEX 00 00:00:00
INDEX 01 00:00:32
TRACK 02 AUDIO
TITLE “Dunkler Ort”
PERFORMER “Boehse Onkelz”
INDEX 01 04:36:16
TRACK 03 AUDIO
TITLE “Onkelz 2000”
PERFORMER “Boehse Onkelz”
INDEX 01 08:52:22
TRACK 04 AUDIO
TITLE “Guten Tag”
PERFORMER “Boehse Onkelz”
INDEX 01 13:49:70
TRACK 05 AUDIO
TITLE “Koma”
PERFORMER “Boehse Onkelz”
INDEX 01 18:35:59
TRACK 06 AUDIO
TITLE “Terpentin”
PERFORMER “Boehse Onkelz”
INDEX 01 23:51:70
TRACK 07 AUDIO
TITLE “Nur die Besten sterben jung”
PERFORMER “Boehse Onkelz”
INDEX 01 27:55:18
TRACK 08 AUDIO
TITLE “Schutzgeist der Scheiße”
PERFORMER “Boehse Onkelz”
INDEX 01 32:16:74
TRACK 09 AUDIO
TITLE “Keine ist wie Du”
PERFORMER “Boehse Onkelz”
INDEX 01 36:57:55
TRACK 10 AUDIO
TITLE “Bin ich nur glücklich, wenn es schmerzt”
PERFORMER “Boehse Onkelz”
INDEX 01 40:26:49
TRACK 11 AUDIO
TITLE “Stunde des Siegers”
PERFORMER “Boehse Onkelz”
INDEX 01 46:07:15
TRACK 12 AUDIO
TITLE “Kirche”
PERFORMER “Boehse Onkelz”
INDEX 01 51:01:43
TRACK 13 AUDIO
TITLE “Hier sind die Onkelz”
PERFORMER “Boehse Onkelz”
INDEX 01 56:51:32
TRACK 14 AUDIO
TITLE “Medley (Wilde Jungs, So sind wir, Heute trinken wir richtig, Nie wieder)”
PERFORMER “Boehse Onkelz”
INDEX 01 61:42:20
TRACK 15 AUDIO
TITLE “Mexico”
PERFORMER “Boehse Onkelz”
INDEX 01 68:32:29
TRACK 16 AUDIO
TITLE “Erinnerungen”
PERFORMER “Boehse Onkelz”
INDEX 01 72:37:60


Leave a Reply

Your email address will not be published. Required fields are marked *

This site uses Akismet to reduce spam. Learn how your comment data is processed.