Böhse Onkelz – Terpentin




Artist: Böhse Onkelz
Year: 1998
Genre: Rock
Notes: Discogs
Add. Notes:
Cover incl.: Yes
Encoder: FLAC
Bitrate: ~1000 kBit/s (44.1 kHz/16 Bit/s)
Log & Cue incl.: Yes
Size: 90,89 MB
Password: “slam” (without ” “)


All Downloads/Hosters are compatible

Download 1
Turbobit.net
KatFile.com
Rapidgator.net
ddl.to
Download 2
Turbobit.net
KatFile.com
Rapidgator.net
ddl.to

Tracklist:

1 - Terpentin - 3:54
2 - Weit Weg - 5:16
3 - 11/97 - 2:59

EAC-Log, CUE-Sheed & NFO:

Click to open spoiler
Exact Audio Copy V0.99 prebeta 4 from 23. January 2008

Отчёт EAC об извлечении, выполненном 13. июля 2008, 13:37

Bцhse Onkelz / Terpentin (Single)

Дисковод: HL-DT-STDVDRAM GSA-4040B Adapter: 0 ID: 1

Режим чтения : Достоверность
Использование точного потока : Да
Отключение кэша аудио : Нет
Использование указателей C2 : Да

Комбинированное смещение чтения/записи : 0
Способность читать области Lead-in и Lead-out : Нет
Заполнение пропущенных сэмплов тишиной : Да
Удаление блоков с тишиной в начале и конце : Нет
При вычислениях CRC использовались нулевые сэмплы : Да
Интерфейс : Встроенный Win32-интерфейс для Win NT/2000

Выходной формат : Пользовательский кодировщик
Выбранный битрейт : 768 kBit/s
Качество : Высокий
Добавление ID3-тэга : Нет
Утилита сжатия : C:\Program Files\Exact Audio Copy\FLAC\FLAC.EXE
Дополнительные параметры : -6 -V -T “ARTIST=%a” -T “TITLE=%t” -T “ALBUM=%g” -T “DATE=%y” -T “TRACKNUMBER=%n” -T “GENRE=%m” -T “COMMENT=%e” %s -o %d

TOC извлечённого CD

Трек | Старт | Длительность | Начальный сектор | Конечный сектор
———————————————————————
1 | 0:00.32 | 3:57.18 | 32 | 17824
2 | 3:57.50 | 5:18.32 | 17825 | 41706
3 | 9:16.07 | 2:58.25 | 41707 | 55081

Характеристики диапазона извлечения и сообщения об ошибках

Выбранный диапазон

Имя файла D:\My torrents\Boehse_Onkelz_lossless2\1998-Terpentin\Boehse Onkelz – Terpentin (Single).wav

Пиковый уровень 99.5 %
Качество диапазона 100.0 %
CRC копии 4C48736C
Копирование… OK

Ошибок не произошло

Конец отчёта

REM GENRE Rock
REM DATE 1998
REM DISCID 2202DE03
REM COMMENT “ExactAudioCopy v0.99pb4”
PERFORMER “Böhse Onkelz”
TITLE “Terpentin (Single)”
FILE “Boehse Onkelz – Terpentin (Single).flac” WAVE
TRACK 01 AUDIO
TITLE “Terpentin”
PERFORMER “Böhse Onkelz”
INDEX 00 00:00:00
INDEX 01 00:00:32
TRACK 02 AUDIO
TITLE “Weit weg”
PERFORMER “Böhse Onkelz”
INDEX 00 03:56:10
INDEX 01 03:57:50
TRACK 03 AUDIO
TITLE “11/97”
PERFORMER “Böhse Onkelz”
INDEX 00 09:14:30
INDEX 01 09:16:07


Leave a Reply

Your email address will not be published. Required fields are marked *

This site uses Akismet to reduce spam. Learn how your comment data is processed.