Böhse Onkelz – Schwarz




Artist: Böhse Onkelz
Year: 1993
Genre: Rock
Notes: Discogs
Add. Notes:
Cover incl.: Yes
Encoder: FLAC
Bitrate: ~900 kBit/s (44.1 kHz/16 Bit/s)
Log & Cue incl.: Yes
Size: 338,49 MB
Password: “slam” (without ” “)


All Downloads/Hosters are compatible

Download 1
Turbobit.net
KatFile.com
Rapidgator.net
ddl.to
Download 2
Turbobit.net
KatFile.com
Rapidgator.net
ddl.to

Tracklist:

1 - Erkennen Sie Die Melodie - 4:04
2 - Wenn Wir Einmal Engel Sind - 
3:57
3 - So Gehts Dir (Deine Hölle) - 3:08
4 - Der Himmel Kann Warten - 4:15
5 - Ich Bin Wie Ich Bin - 4:47
6 - Das Messer Und Die Wunde - 
3:14
7 - 1000 Fragen - 4:54
8 - Ich Bin Du - 3:35
9 - Worte Der Freiheit - 5:26
10 - Das Rätsel Des Lebens - 3:29
11 - Baja - 8:29

EAC-Log, CUE-Sheed & NFO:

Click to open spoiler
Exact Audio Copy V0.99 prebeta 4 from 23. January 2008

Отчёт EAC об извлечении, выполненном 8. мая 2008, 16:17

Boehse Onkelz / Schwarzes Album

Дисковод: Optiarc DVD RW AD-7170A Adapter: 0 ID: 0

Режим чтения : Достоверность
Использование точного потока : Да
Отключение кэша аудио : Да
Использование указателей C2 : Нет

Коррекция смещения при чтении : 48
Способность читать области Lead-in и Lead-out : Нет
Заполнение пропущенных сэмплов тишиной : Да
Удаление блоков с тишиной в начале и конце : Нет
При вычислениях CRC использовались нулевые сэмплы : Да
Интерфейс : Встроенный Win32-интерфейс для Win NT/2000

Выходной формат : Пользовательский кодировщик
Выбранный битрейт : 768 kBit/s
Качество : Высокий
Добавление ID3-тэга : Нет
Утилита сжатия : C:\Program Files\Exact Audio Copy\FLAC\FLAC.EXE
Дополнительные параметры : -6 -V -T “ARTIST=%a” -T “TITLE=%t” -T “ALBUM=%g” -T “DATE=%y” -T “TRACKNUMBER=%n” -T “GENRE=%m” -T “COMMENT=%e” %s -o %d

TOC извлечённого CD

Трек | Старт | Длительность | Начальный сектор | Конечный сектор
———————————————————————
1 | 0:00.00 | 4:06.50 | 0 | 18499
2 | 4:06.50 | 4:00.12 | 18500 | 36511
3 | 8:06.62 | 3:10.50 | 36512 | 50811
4 | 11:17.37 | 4:17.13 | 50812 | 70099
5 | 15:34.50 | 4:49.00 | 70100 | 91774
6 | 20:23.50 | 3:16.62 | 91775 | 106536
7 | 23:40.37 | 5:00.00 | 106537 | 129036
8 | 28:40.37 | 3:37.63 | 129037 | 145374
9 | 32:18.25 | 5:28.00 | 145375 | 169974
10 | 37:46.25 | 3:35.37 | 169975 | 186136
11 | 41:21.62 | 8:54.03 | 186137 | 226189

Характеристики диапазона извлечения и сообщения об ошибках

Выбранный диапазон

Имя файла Q:\Boehse Onkelz\BO_-_5_albums\Schwarzes Album (1993)\Boehse Onkelz – Schwarzes Album.wav

Пиковый уровень 99.3 %
Качество диапазона 100.0 %
CRC теста E0642A3D
CRC копии E0642A3D
Копирование… OK

Ошибок не произошло

AccurateRip: сводка

Трек 1 точность не определена (достоверность 7) [9C1CEC25], AccurateRip вернул [09CA5BF9]
Трек 2 точность не определена (достоверность 7) [8CA6423C], AccurateRip вернул [D3CEC198]
Трек 3 точность не определена (достоверность 7) [99E48FC7], AccurateRip вернул [D7A6CA60]
Трек 4 точность не определена (достоверность 6) [DB4E0CAE], AccurateRip вернул [22B394A4]
Трек 5 точность не определена (достоверность 6) [D8C21A1C], AccurateRip вернул [011EA27D]
Трек 6 точность не определена (достоверность 6) [A2A11176], AccurateRip вернул [741C66E8]
Трек 7 точность не определена (достоверность 5) [511F4CD4], AccurateRip вернул [0C89FC5A]
Трек 8 точность не определена (достоверность 6) [18ABDC78], AccurateRip вернул [294B2EF3]
Трек 9 точность не определена (достоверность 4) [3981FBBB], AccurateRip вернул [10540F91]
Трек 10 точность не определена (достоверность 5) [0E8F305E], AccurateRip вернул [6730C7E1]
Трек 11 точность не определена (достоверность 2) [885014F9], AccurateRip вернул [28774994]

Ни один трек не прошёл проверки на точность
В вашей базе может быть иной вариант штамповки диска

Конец отчёта

REM GENRE Rock
REM DATE 1993
REM DISCID 9C0BC70B
REM COMMENT “ExactAudioCopy v0.99pb4”
PERFORMER “Boehse Onkelz”
TITLE “Schwarzes Album”
FILE “Boehse Onkelz – Schwarzes Album.flac” WAVE
TRACK 01 AUDIO
TITLE “Erkennen Sie die Melodie”
PERFORMER “Boehse Onkelz”
INDEX 01 00:00:00
TRACK 02 AUDIO
TITLE “Wenn wir einmal Engel sind”
PERFORMER “Boehse Onkelz”
INDEX 00 04:04:27
INDEX 01 04:06:50
TRACK 03 AUDIO
TITLE “So geht’s Dir (Deine Hoelle)”
PERFORMER “Boehse Onkelz”
INDEX 00 08:04:32
INDEX 01 08:06:62
TRACK 04 AUDIO
TITLE “Der Himmel kann warten”
PERFORMER “Boehse Onkelz”
INDEX 00 11:15:40
INDEX 01 11:17:37
TRACK 05 AUDIO
TITLE “Ich bin wie ich bin”
PERFORMER “Boehse Onkelz”
INDEX 00 15:32:22
INDEX 01 15:34:50
TRACK 06 AUDIO
TITLE “Das Messer und die Wunde”
PERFORMER “Boehse Onkelz”
INDEX 00 20:21:17
INDEX 01 20:23:50
TRACK 07 AUDIO
TITLE “1000 Fragen”
PERFORMER “Boehse Onkelz”
INDEX 00 23:38:07
INDEX 01 23:40:37
TRACK 08 AUDIO
TITLE “Ich bin Du”
PERFORMER “Boehse Onkelz”
INDEX 00 28:38:15
INDEX 01 28:40:37
TRACK 09 AUDIO
TITLE “Worte der Freiheit”
PERFORMER “Boehse Onkelz”
INDEX 00 32:15:60
INDEX 01 32:18:25
TRACK 10 AUDIO
TITLE “Das Raetsel des Lebens”
PERFORMER “Boehse Onkelz”
INDEX 00 37:43:70
INDEX 01 37:46:25
TRACK 11 AUDIO
TITLE “Baja”
PERFORMER “Boehse Onkelz”
INDEX 00 41:19:35
INDEX 01 41:21:62


Leave a Reply

Your email address will not be published. Required fields are marked *

Enter the text from the image below
 

This site uses Akismet to reduce spam. Learn how your comment data is processed.